Welcome Guest ( Log In | Register )

 
Reply to this topicStart new topic
> Bone Church - Bone Church [ep] (2017), Stoner Metal/Psychedelic Rock
post Mar 13 2018, 14:51:35
Post #1

Мегаманьяк
***********
Group: Металариец
Posts: 1,638
Releases: 123
From: Omsk, Siberia
On Forums: 9 years 8 months
Thanks: 2673 time(s)
Russian Federation


(IMG:https://metalarea.org/images/audiocovers/2018_Mar/acov_tid303227_thumb.jpg)

*Artist: Bone Church
*Album: Bone Church [ep]
*Year: 2017
*Genre: Stoner Metal/Psychedelic Rock
*Country: United States (IMG:https://metalarea.org/forum/style_images/flags/United%20States.png)
*Format: mp3@CBR320kbps
*Size: 79MB

Tracklist:
1. Altered States 06:45
2. Crimson Crown 04:24
3. Sacrament 03:39
4. Pale Moon Sacrifice 07:11
5. Too Far Out 07:01
******************************
Total playing time: 29:02




Extended info
Dan Sefcik - guitar, bass, lyrics
Rob Sickinger - drums, lyrics
Jack Rune - vocals
Pat Good - bass


Technical info
(IMG:https://metalarea.org/images/spectrogram/2018_Mar/bb7eb16aa146fb4ed2a4ff1ce2409ac7.png)
Input File: 02 Crimson Crown.mp3
Channels : 2
Sample Rate : 44100
Precision : 16-bit
Duration : 00:04:24.88 = 11681340 samples = 19866.2 CDDA sectors
File Size : 10.7M
Bit Rate : 323k
Sample Encoding: MPEG audio (layer I, II or III)
Comments :
Title=Crimson Crown
Artist=Bone Church
Album=Bone Church
Tracknumber=2/5
Year=2017
Genre=9
Discnumber=1/1



Register


Go to the top of the page
  Insert nick Quick quote
+Quote Post

Reply to this topicStart new topic
1 User(s) are reading this topic (1 Guests and 0 Anonymous Users)
0 Members:

 



- Lo-Fi Version Support form
Copyrights and abuse reports form
Time is now: 13th December 2018 - 21:34:04