Welcome Guest ( Log In | Register )

 
Reply to this topicStart new topic
> Disobedient - Forests We Walk In (2018), Black Metal
post Mar 13 2018, 16:03:48
Post #1

Serial Uploader
Group Icon
Group: V.I.P
Posts: 32,724
Releases: 31022
From: Lithuania
On Forums: 10 years 1 week
Thanks: 355655 time(s)
Lithuania


(IMG:https://metalarea.org/images/audiocovers/2018_Mar/acov_tid303228_thumb.png)

*Artist: Disobedient
*Album: Forests We Walk In
*Year: 2018
*Genre: Black Metal
*Country: United Kingdom (IMG:https://metalarea.org/forum/style_images/flags/United%20Kingdom.png)
*Format: mp3@CBR320kbps
*Size: 92MB

Tracklist:
01. Disbelief Of The Sorrow Future 03:28
02. Night's Blessing 05:23
03. The Black Death 04:30
04. Down Under 04:49
05. From Hell And Back Unscathed 04:34
06. Lost In The Stars 05:32
07. Black Light, I Pray 05:07
08. Forests We Walk In 01:16
09. Wicked Intent 05:10
******************************
Total playing time: 39:49



Technical info
(IMG:https://metalarea.org/images/spectrogram/2018_Mar/0e1b806f49835a4cde0181e57c326a60.png)
Input File: 02. Night\'s Blessing.mp3
Channels : 2
Sample Rate : 44100
Precision : 16-bit
Duration : 00:05:23.30 = 14257310 samples = 24247.1 CDDA sectors
File Size : 13.0M
Bit Rate : 322k
Sample Encoding: MPEG audio (layer I, II or III)
Comments :
Title=Night's Blessing
Artist=Disobedient
Album=Forests We Walk In
Tracknumber=2
Year=2018



Register


Go to the top of the page
  Insert nick Quick quote
+Quote Post

Reply to this topicStart new topic
1 User(s) are reading this topic (1 Guests and 0 Anonymous Users)
0 Members:

 



- Lo-Fi Version Support form
Copyrights and abuse reports form
Time is now: 20th June 2018 - 19:48:04