Welcome Guest ( Log In | Register )

 
Reply to this topicStart new topic
> Disobedient - Disobedient (2017), Black Metal
post Mar 13 2018, 16:11:07
Post #1

Serial Uploader
Group Icon
Group: V.I.P
Posts: 32,724
Releases: 31022
From: Lithuania
On Forums: 10 years 1 week
Thanks: 355655 time(s)
Lithuania


(IMG:https://metalarea.org/images/audiocovers/2018_Mar/acov_tid303229_thumb.jpg)

*Artist: Disobedient
*Album: Disobedient
*Year: 2017
*Genre: Black Metal
*Country: United Kingdom (IMG:https://metalarea.org/forum/style_images/flags/United%20Kingdom.png)
*Format: mp3@CBR320kbps
*Size: 60MB

Tracklist:
01. A Monster 04:41
02. Disobedient 03:58
03. Reborn 03:42
04. Angels Do Not Dwell Here 05:20
05. No Hope 02:15
06. For Another Day 06:00
******************************
Total playing time: 25:56



Technical info
(IMG:https://metalarea.org/images/spectrogram/2018_Mar/8ddc17de12c4ed74e38e48afc54585ea.png)
Input File: 03. Reborn.mp3
Channels : 2
Sample Rate : 44100
Precision : 16-bit
Duration : 00:03:42.27 = 9802107 samples = 16670.2 CDDA sectors
File Size : 9.07M
Bit Rate : 326k
Sample Encoding: MPEG audio (layer I, II or III)
Comments :
Title=Reborn
Artist=Disobedient
Album=Disobedient
Tracknumber=3
Year=2017



Register


Go to the top of the page
  Insert nick Quick quote
+Quote Post

Reply to this topicStart new topic
1 User(s) are reading this topic (1 Guests and 0 Anonymous Users)
0 Members:

 



- Lo-Fi Version Support form
Copyrights and abuse reports form
Time is now: 20th June 2018 - 19:47:50