Welcome Guest ( Log In | Register )

 
Reply to this topicStart new topic
> Disobedient - Old Skulls [ep] (2017), Black Metal
post Mar 13 2018, 16:19:32
Post #1

Serial Uploader
Group Icon
Group: V.I.P
Posts: 32,724
Releases: 31022
From: Lithuania
On Forums: 10 years 1 week
Thanks: 355655 time(s)
Lithuania


(IMG:https://metalarea.org/images/audiocovers/2018_Mar/acov_tid303230_thumb.jpg)

*Artist: Disobedient
*Album: Old Skulls [ep]
*Year: 2017
*Genre: Black Metal
*Country: United Kingdom (IMG:https://metalarea.org/forum/style_images/flags/United%20Kingdom.png)
*Format: mp3@CBR320kbps
*Size: 36MB

Tracklist:
01. Intro 01:02
02. Luciferian Dominance 03:28
03. Old Skulls 04:45
04. Grief 02:06
05. Blood Red Moon 03:53
******************************
Total playing time: 15:14



Technical info
(IMG:https://metalarea.org/images/spectrogram/2018_Mar/3f114c61b1ee07e640149316f3be1b0b.png)
Input File: 02. Luciferian Dominance.mp3
Channels : 2
Sample Rate : 44100
Precision : 16-bit
Duration : 00:03:28.71 = 9204155 samples = 15653.3 CDDA sectors
File Size : 8.40M
Bit Rate : 322k
Sample Encoding: MPEG audio (layer I, II or III)
Comments :
Title=Luciferian Dominance
Artist=Disobedient
Album=Old Skulls (EP)
Tracknumber=2
Year=2017



Register


Go to the top of the page
  Insert nick Quick quote
+Quote Post

Reply to this topicStart new topic
1 User(s) are reading this topic (1 Guests and 0 Anonymous Users)
0 Members:

 



- Lo-Fi Version Support form
Copyrights and abuse reports form
Time is now: 20th June 2018 - 19:48:52