Welcome Guest ( Log In | Register )

> Prickrott - Dust Of Obscure Devastation (2018), Industrial Black Metal
post Mar 13 2018, 17:12:26
Post #1

Правь статус, ####!111
**************
Group: Металариец
Posts: 15,322
Releases: 10460
From: Г.Харьков
On Forums: 6 years 7 months
Thanks: 173472 time(s)
Unknown


(IMG:https://metalarea.org/images/audiocovers/2018_Mar/acov_tid303231_thumb.jpg)

*Artist: Prickrott
*Album: Dust Of Obscure Devastation
*Year: 2018
*Genre: Industrial Black Metal
*Country: Netherlands (IMG:https://metalarea.org/forum/style_images/flags/Netherlands.png)
*Format: mp3@CBR320kbps
*Size: 148MB

Tracklist:
1. Intro 02:40 instrumental
2. Mind Storm 05:04
3. Pest Control 05:24
4. Dust of Obscure Devastation 04:42
5. A Dead Audience 07:54
6. Compound Capacitor 05:09
7. Verspilde Moeite 06:15
8. Dood en Gebroken 07:07
9. Het Gesprek Vervaagt 07:37
10. Neurotransmission Disorder 07:28
11. Bloed, Zweet En Tranen (André Hazes cover) 05:47
******************************
Total playing time: 1:05:07


Preview 2


Extended info
The Announcer Vocals
The Defiler Drums
The Scientist Bass
The Shapeshifter Guitars, Programming


Technical info
(IMG:https://metalarea.org/images/spectrogram/2018_Mar/851ca95b8c5f5c890934851b195b5049.png)
Input File: 03 - Pest Control.mp3
Channels : 2
Sample Rate : 44100
Precision : 16-bit
Duration : 00:05:24.27 = 14300395 samples = 24320.4 CDDA sectors
File Size : 13.0M
Bit Rate : 320k
Sample Encoding: MPEG audio (layer I, II or III)
Comments :
Title=Pest Control
Artist=Prickrott
Album=Dust of Obscure Devastation
Tracknumber=3
Year=2018
Genre=Black Metal



Register


Go to the top of the page
  Insert nick Quick quote
+Quote Post
 
Start new topic
Replies (1 - 1)
post Mar 14 2018, 07:32:13
Post #2

Правь статус, ####!111
**************
Group: Металариец
Posts: 15,322
Releases: 10460
From: Г.Харьков
On Forums: 6 years 7 months
Thanks: 173472 time(s)
Unknown


Register


Thanks:
(1) wtk.412,
Go to the top of the page
  Insert nick Quick quote
+Quote Post

Reply to this topicStart new topic
1 User(s) are reading this topic (1 Guests and 0 Anonymous Users)
0 Members:

 



- Lo-Fi Version Support form
Copyrights and abuse reports form
Time is now: 13th December 2018 - 21:17:08