Welcome Guest ( Log In | Register )

 
Reply to this topicStart new topic
> NightShade - 1426 (2018), Metalcore/Deathcore (D9)
post Mar 13 2018, 17:56:21
Post #1

Маньяк
**********
Group: Металариец
Posts: 1,455
Releases: 1240
From: Одесса
On Forums: 10 years 6 months
Thanks: 9715 time(s)
Ukraine


(IMG:http://metalarea.org/images/audiocovers/2018_Mar/acov_tid303232_thumb.jpg)

*Artist: NightShade
*Album: 1426
*Year: 2018
*Genre: Metalcore/Deathcore
*Country: France (IMG:http://metalarea.org/forum/style_images/flags/France.png)
*Format: mp3@CBR320kbps
*Size: 86MB

Tracklist:
1. 1426 03:17
2. Save It for the Depths 03:48
3. Inclusive 03:14
4. Purpose 02:44
5. Brothers in Arms 03:13
6. Phalaenopsis 04:45
7. Ruins 03:46
8. Snake in the Grass 04:04
9. Moonchild 03:47
10. Aokigahara 03:47
******************************
Total playing time: 36:25



Extended info
Line - up:

Vincent Vidal - Drums (Eternal Redeemers)
Erik Johnson - Guitars
Alex Katorkas - Guitars
Bastien Deleule - Guitars
Trevor Birnie - Vocals (Damascus, ex-Quo Vadis, ex-Angelic Decay, ex-Annex Theory, ex-Buck a Fluffalo, ex-The Cruelty)

Snake in the Grass

(IMG:https://www.metal-archives.com/images/7/7/2/9/77293_photo.jpg?4810)


Technical info
(IMG:http://metalarea.org/images/spectrogram/2018_Mar/a6d03527ba9dd419fd19bfaad4977a5b.png)
Input File: 03. Inclusive.mp3
Channels : 2
Sample Rate : 48000
Precision : 16-bit
Duration : 00:03:13.56 = 9291024 samples ~ 14517.2 CDDA sectors
File Size : 7.75M
Bit Rate : 320k
Sample Encoding: MPEG audio (layer I, II or III)
Comments :
Title=Inclusive
Artist=NightShade
Album=1426
Tracknumber=3
Year=2018
Genre=Metalcore / Deathcore



Register


Go to the top of the page
  Insert nick Quick quote
+Quote Post

Reply to this topicStart new topic
1 User(s) are reading this topic (1 Guests and 0 Anonymous Users)
0 Members:

 



- Lo-Fi Version Support form
Copyrights and abuse reports form
Time is now: 13th December 2018 - 20:44:40