Welcome Guest ( Log In | Register )

 
Reply to this topicStart new topic
> No Holds Barred - Prelude [ep] (2017), Death/Thrash Metal
post Mar 13 2018, 19:31:14
Post #1

Маньяк
**********
Group: Металариец
Posts: 1,250
Releases: 1045
From: Одесса
On Forums: 10 years 1 month
Thanks: 8130 time(s)
Ukraine


(IMG:http://metalarea.org/images/audiocovers/2018_Mar/acov_tid303234_thumb.jpg)

*Artist: No Holds Barred
*Album: Prelude [ep]
*Year: 2017
*Genre: Death/Thrash Metal
*Country: Spain (IMG:http://metalarea.org/forum/style_images/flags/Spain.png)
*Format: mp3@CBR320kbps
*Size: 44MB

Tracklist:
1. Brainwash 03:07
2. Redneck Metalhead 02:56
3. Prelude to Your Death 04:59
4. Metal Gorilla 04:02
5. Glassgow Kiss 03:09
******************************
Total playing time: 18:13



Extended info
Line - up:

Dani Zamora - Bass (Chronos)
Hernan Simon - Drums
Thomas Höffken - Guitars (Chronos)
Denis Duran - Guitars (Asterium, Hexadeath)
Isaac González - Vocals, Banjo

(IMG:https://www.metal-archives.com/images/3/5/4/0/3540433766_photo.jpg?4132)


Technical info
(IMG:http://metalarea.org/images/spectrogram/2018_Mar/e58b4516e0424e16cf6afa9c157f3849.png)
Input File: 03. Prelude to your Death.mp3
Channels : 2
Sample Rate : 48000
Precision : 16-bit
Duration : 00:04:59.33 = 14367888 samples ~ 22449.8 CDDA sectors
File Size : 12.0M
Bit Rate : 321k
Sample Encoding: MPEG audio (layer I, II or III)
Comments :
Title=Prelude to your Death
Artist=No Holds Barred
Album=Prelude (EP)
Tracknumber=3
Year=2017
Genre=Death / Thrash Metal



Register


Go to the top of the page
  Insert nick Quick quote
+Quote Post

Reply to this topicStart new topic
2 User(s) are reading this topic (2 Guests and 0 Anonymous Users)
0 Members:

 



- Lo-Fi Version Support form
Copyrights and abuse reports form
Time is now: 17th July 2018 - 07:10:39