Welcome Guest ( Log In | Register )

> Правила / Rules

Тут только для чтения лежат низкобитрейтные (<192kbps) релизы, для которых есть аналоги в высокобитрейтных форумах.

Here goes (and stand in read only mode) low bitrate releases (<192kbps) which were already replaced by high bitrate releases in corresponding forums.

> Hiidenhauta - 1695 (2018), Melodic Black Metal (D)
post Mar 13 2018, 20:37:25
Post #1

Семь Литров
*******
Group: Металариец
Posts: 790
Releases: 664
From: Новороссийск
On Forums: 7 years 1 month
Thanks: 11271 time(s)
Russian Federation


(IMG:https://metalarea.org/images/audiocovers/2018_Mar/acov_tid303235_thumb.jpg)

*Artist: Hiidenhauta
*Album: 1695
*Year: 2018
*Genre: Melodic Black Metal
*Country: Finland (IMG:https://metalarea.org/forum/style_images/flags/Finland.png)
*Format: mp3@CBR128kbps (IMG:https://metalarea.org/images/bit_low.gif)
*Size: 32MB

Tracklist:
01. Hallan Valta 03:22
02. Äärellä 03:45
03. Kuolimaan Tytär 03:57
04. Musta Leipä 03:28
05. Jumalan Vihan Ruoska 03:04
06. Talvikäräjät 03:53
07. Nälkäkevät 04:22
08. Maan Poveen 07:03
09. Nimettömät 01:36
******************************
Total playing time: 34:33



Technical info
(IMG:https://metalarea.org/images/spectrogram/2018_Mar/5e006651b8a1711d2a278f43b1979022.png)
Input File: 01. Hallan Valta.mp3
Channels : 2
Sample Rate : 44100
Precision : 16-bit
Duration : 00:03:22.14 = 8914462 samples = 15160.6 CDDA sectors
File Size : 3.24M
Bit Rate : 128k
Sample Encoding: MPEG audio (layer I, II or III)
Comments :
Title=Hallan Valta
Artist=Hiidenhauta
Album=1695
Tracknumber=01
Year=2018
Genre=Black Metal



Register


Go to the top of the page
  Insert nick Quick quote
+Quote Post
 
Start new topic
Replies (1 - 2)
post Mar 14 2018, 08:34:34    Сейчас играет: Apotelesma - Our Blooming Essence
Post #2

antithesis
**************
Group: Металариец
Posts: 2,169
Releases: 27
From: VRN
On Forums: 8 years 4 weeks
Thanks: 1128 time(s)
Russian Federation


mirror, pls
Go to the top of the page
  Insert nick Quick quote
+Quote Post
post Mar 14 2018, 12:58:02
Post #3

Семь Литров
*******
Group: Металариец
Posts: 790
Releases: 664
From: Новороссийск
On Forums: 7 years 1 month
Thanks: 11271 time(s)
Russian Federation


ЦИТАТА(Razorbladeswaltz @ Mar 14 2018, 08:34:34) *
mirror, pls

Добавил в теме.


Go to the top of the page
  Insert nick Quick quote
+Quote Post

Причина закрытия (Хогги 15-03-2018):
Closed TopicStart new topic
1 User(s) are reading this topic (1 Guests and 0 Anonymous Users)
0 Members:

 



- Lo-Fi Version Support form
Copyrights and abuse reports form
Time is now: 21st June 2018 - 14:57:31