Welcome Guest ( Log In | Register )

> Líchryre - Exiled From The Mortal Realm [demo] (2017), Raw Black Metal
post Mar 13 2018, 21:30:07
Post #1

Правь статус, ####!616
**************
Group: Металариец
Posts: 4,398
Releases: 3004
From: 55°35’N 38°08’E
On Forums: 9 years 11 months
Thanks: 55855 time(s)
Unknown


(IMG:http://metalarea.org/images/audiocovers/2018_Mar/acov_tid303237_thumb.jpg)

*Artist: Líchryre
*Album: Exiled From The Mortal Realm [demo]
*Year: 2017
*Genre: Raw Black Metal
*Country: United States (IMG:http://metalarea.org/forum/style_images/flags/United%20States.png)
*Format: mp3@CBR320kbps
*Size: 47MB

Tracklist:
1. Untitled 04:51
2. Untitled 04:00
3. Untitled 04:51
4. Untitled 03:57
******************************
Total playing time: 17:39

Technical info
(IMG:http://metalarea.org/images/spectrogram/2018_Mar/d194434f73282e675c79c946c3b1d75a.png)
Input File: 01. Untitled.mp3
Channels : 2
Sample Rate : 44100
Precision : 16-bit
Duration : 00:04:51.27 = 12844963 samples = 21845.2 CDDA sectors
File Size : 11.7M
Bit Rate : 323k
Sample Encoding: MPEG audio (layer I, II or III)
Comments :
Title=Untitled
Artist=LГ­chryre
Album=Exiled from the Mortal Realm
Tracknumber=1/4
Year=2017
Genre=Black Metal



Register


Go to the top of the page
  Insert nick Quick quote
+Quote Post
 
Start new topic
Replies (1 - 2)
post Mar 14 2018, 06:14:17
Post #2

Oax Moax Voax
****
Group: Металариец
Posts: 346
Releases: 5
From: UKR
On Forums: 9 years 7 months
Thanks: 565 time(s)
Ukraine


Сколько встречаю подобных групп, всегда возникает один и тот же вопрос, почему этот мусор характеризуют как Black Metal
Go to the top of the page
  Insert nick Quick quote
+Quote Post
post Mar 14 2018, 15:35:42
Post #3

Satan bless you!
**************
Group: Металариец
Posts: 3,153
Releases: 63
From: Москва
On Forums: 9 years 11 months
Thanks: 2712 time(s)
Russian Federation


ЦИТАТА(blackness @ Mar 14 2018, 08:14:17) *
Сколько встречаю подобных групп, всегда возникает один и тот же вопрос, почему этот мусор характеризуют как Black Metal

Я даже их и не слушаю..мимо
Go to the top of the page
  Insert nick Quick quote
+Quote Post

Reply to this topicStart new topic
1 User(s) are reading this topic (1 Guests and 0 Anonymous Users)
0 Members:

 



- Lo-Fi Version Support form
Copyrights and abuse reports form
Time is now: 20th June 2018 - 19:49:23