Welcome Guest ( Log In | Register )

> Líchryre - Exiled From The Mortal Realm [demo] (2017), Raw Black Metal
post Mar 13 2018, 21:30:07
Post #1

Правь статус, ####!616
**************
Group: Металариец
Posts: 4,426
Releases: 3019
From: 55°35’N 38°08’E
On Forums: 10 years 5 months
Thanks: 57038 time(s)
Unknown


(IMG:http://metalarea.org/images/audiocovers/2018_Mar/acov_tid303237_thumb.jpg)

*Artist: Líchryre
*Album: Exiled From The Mortal Realm [demo]
*Year: 2017
*Genre: Raw Black Metal
*Country: United States (IMG:http://metalarea.org/forum/style_images/flags/United%20States.png)
*Format: mp3@CBR320kbps
*Size: 47MB

Tracklist:
1. Untitled 04:51
2. Untitled 04:00
3. Untitled 04:51
4. Untitled 03:57
******************************
Total playing time: 17:39

Technical info
(IMG:http://metalarea.org/images/spectrogram/2018_Mar/d194434f73282e675c79c946c3b1d75a.png)
Input File: 01. Untitled.mp3
Channels : 2
Sample Rate : 44100
Precision : 16-bit
Duration : 00:04:51.27 = 12844963 samples = 21845.2 CDDA sectors
File Size : 11.7M
Bit Rate : 323k
Sample Encoding: MPEG audio (layer I, II or III)
Comments :
Title=Untitled
Artist=LГ­chryre
Album=Exiled from the Mortal Realm
Tracknumber=1/4
Year=2017
Genre=Black Metal



Register


Go to the top of the page
  Insert nick Quick quote
+Quote Post
 
Start new topic
Replies (1 - 4)
post Mar 14 2018, 06:14:17
Post #2

Oax Moax Voax
****
Group: Металариец
Posts: 361
Releases: 5
From: UKR
On Forums: 10 years 3 weeks
Thanks: 582 time(s)
Ukraine


Сколько встречаю подобных групп, всегда возникает один и тот же вопрос, почему этот мусор характеризуют как Black Metal
Go to the top of the page
  Insert nick Quick quote
+Quote Post
post Mar 14 2018, 15:35:42
Post #3

De Mysteriis Dom Sathanas
**************
Group: Металариец
Posts: 3,347
Releases: 63
From: Москва
On Forums: 10 years 5 months
Thanks: 2866 time(s)
Russian Federation


ЦИТАТА(blackness @ Mar 14 2018, 08:14:17) *
Сколько встречаю подобных групп, всегда возникает один и тот же вопрос, почему этот мусор характеризуют как Black Metal

Я даже их и не слушаю..мимо
Go to the top of the page
  Insert nick Quick quote
+Quote Post
post Aug 23 2018, 13:27:01
Post #4

добрый мизантроп
***********
Group: Металариец
Posts: 1,624
Releases: 0
From: Минск
On Forums: 8 years 4 weeks
Thanks: 487 time(s)
Madagascar


ЦИТАТА(blackness @ Mar 14 2018, 08:14:17) *
Сколько встречаю подобных групп, всегда возникает один и тот же вопрос, почему этот мусор характеризуют как Black Metal

К сожалению в этом мусоре есть маленький процент годноты, которую приходится пропускать.
А так вижу США + ванмен + low-fi sound = ПНХ
Go to the top of the page
  Insert nick Quick quote
+Quote Post
post Aug 23 2018, 14:59:23
Post #5

Ледоруб
**************
Group: Металариец
Posts: 20,923
Releases: 0
From: Санкт-Петербург
On Forums: 9 years 3 months
Thanks: 6780 time(s)
Russian Federation


ЦИТАТА(blackness @ 14th March 2018 - 08:14:17) *
Сколько встречаю подобных групп, всегда возникает один и тот же вопрос, почему этот мусор характеризуют как Black Metal

Потому что этот жанр этого достоин.
Go to the top of the page
  Insert nick Quick quote
+Quote Post

Reply to this topicStart new topic
1 User(s) are reading this topic (1 Guests and 0 Anonymous Users)
0 Members:

 



- Lo-Fi Version Support form
Copyrights and abuse reports form
Time is now: 13th December 2018 - 21:58:24