Welcome Guest ( Log In | Register )

 
Reply to this topicStart new topic
> Funerary Despair - Solitude [demo] (2018), Raw Black Metal
post Mar 13 2018, 21:38:07
Post #1

Правь статус, ####!616
**************
Group: Металариец
Posts: 4,404
Releases: 3004
From: 55°35’N 38°08’E
On Forums: 10 years 2 months
Thanks: 56503 time(s)
Unknown


(IMG:http://metalarea.org/images/audiocovers/2018_Mar/acov_tid303238_thumb.jpg)

*Artist: Funerary Despair
*Album: Solitude [demo]
*Year: 2018
*Genre: Raw Black Metal
*Country: United States (IMG:http://metalarea.org/forum/style_images/flags/United%20States.png)
*Format: mp3@CBR320kbps
*Size: 25MB

Tracklist:
1.The Bitter End 02:16
2.Linger 02:49
3.Solitude 04:07
4.Funerary Despair 01:44
******************************
Total playing time: 10:56

Technical info
(IMG:http://metalarea.org/images/spectrogram/2018_Mar/4ecd203fb27153b89af6248c64f5ceb6.png)
Input File: 01 The Bitter End.mp3
Channels : 2
Sample Rate : 44100
Precision : 16-bit
Duration : 00:02:16.09 = 6001437 samples = 10206.5 CDDA sectors
File Size : 5.52M
Bit Rate : 325k
Sample Encoding: MPEG audio (layer I, II or III)
Comments :
Title=The Bitter End
Artist=Funerary Despair
Album=Solitude
Tracknumber=1
Year=2018
Genre=Black Metal



Register


Go to the top of the page
  Insert nick Quick quote
+Quote Post

Reply to this topicStart new topic
1 User(s) are reading this topic (1 Guests and 0 Anonymous Users)
0 Members:

 



- Lo-Fi Version Support form
Copyrights and abuse reports form
Time is now: 23rd September 2018 - 05:14:25