Welcome Guest ( Log In | Register )

> Annagram - Synthetic Legion [ep] (2018), Progressive Death Metal
post Mar 13 2018, 22:05:25
Post #1

Правь статус, ####!111
**************
Group: Металариец
Posts: 13,362
Releases: 9421
From: Г.Харьков
On Forums: 6 years 1 month
Thanks: 153701 time(s)
Unknown


(IMG:https://metalarea.org/images/audiocovers/2018_Mar/acov_tid303239_thumb.jpg)

*Artist: Annagram
*Album: Synthetic Legion [ep]
*Year: 2018
*Genre: Progressive Death Metal
*Country: Chile (IMG:https://metalarea.org/forum/style_images/flags/Chile.png)
*Format: mp3@CBR320kbps
*Size: 92MB

Tracklist:
01. Touching the Bottom of the Pit
02. Underneath
03. Ascension Through Duality
04. Disclosure
05. Synthetic Legion
06. Martyr's Resilience
07. Tardigrade
08. Unexpected
******************************
Total playing time: 39:26



Extended info
Mario Alarcón - Voz
Bastian Cáceres - Bajo y efectos
John Collyer - Guitarra
Erick Martens - Guitarra
Santiago Pérez - Batería


Technical info
(IMG:https://metalarea.org/images/spectrogram/2018_Mar/dc4f4e40806538b470860ffbf88d71a1.png)
Input File: 02. Underneath.mp3
Channels : 2
Sample Rate : 44100
Precision : 16-bit
Duration : 00:05:07.26 = 13550078 samples = 23044.4 CDDA sectors
File Size : 12.4M
Bit Rate : 324k
Sample Encoding: MPEG audio (layer I, II or III)
Comments :
Title=Underneath
Artist=Annagram
Album=Synthetic Legion
Tracknumber=2/8
Year=2018
Discnumber=1/1



Register


Go to the top of the page
  Insert nick Quick quote
+Quote Post
 
Start new topic
Replies (1 - 3)
post Mar 13 2018, 23:07:41
Post #2

Аннигилятор пивА
Group Icon
Group: V.I.P
Posts: 46,815
Releases: 14061
From: Koenigsberg - TILZIT
On Forums: 12 years 3 weeks
Thanks: 311997 time(s)
Russian Federation


Modern Groove/Death Metal/Jent


Thanks:
Go to the top of the page
  Insert nick Quick quote
+Quote Post
post Mar 13 2018, 23:48:28
Post #3

В чистоте и единстве:мысль-слово-дело
**************
Group: Металариец
Posts: 2,221
Releases: 9
From: Киев
On Forums: 10 years 11 months
Thanks: 1232 time(s)
Ukraine


ЦИТАТА(aesteticvice @ 14th March 2018 - 02:07:41) *
Modern Groove/Death Metal/Jent

тогда мимо
Go to the top of the page
  Insert nick Quick quote
+Quote Post
post Mar 14 2018, 16:25:20
Post #4

Четыре Литра
****
Group: Металариец
Posts: 381
Releases: 0
On Forums: 11 years 5 months
Thanks: 48 time(s)
Russian Federation


ЦИТАТА(aesteticvice @ Mar 14 2018, 02:07:41) *
Modern Groove/Death Metal/Jent


Модерн прог грув метал,до дэта как по мне не дотягивают чуток.Уровень тяжолости как Годжира.Ну и не разу не джент.Ходы интересные,но как то суховато и скучновато исполнено.
Go to the top of the page
  Insert nick Quick quote
+Quote Post

Reply to this topicStart new topic
1 User(s) are reading this topic (1 Guests and 0 Anonymous Users)
0 Members:

 



- Lo-Fi Version Support form
Copyrights and abuse reports form
Time is now: 20th June 2018 - 19:46:54