Welcome Guest ( Log In | Register )

 
Reply to this topicStart new topic
> Gorevent - In The Face Of... (2018), Brutal Death Metal (D9)
post Mar 13 2018, 22:50:59
Post #1

Правь статус, ####!111
**************
Group: Металариец
Posts: 14,343
Releases: 9939
From: Г.Харьков
On Forums: 6 years 4 months
Thanks: 163088 time(s)
Unknown


(IMG:https://metalarea.org/images/audiocovers/2018_Mar/acov_tid303240_thumb.jpg)

*Artist: Gorevent
*Album: In The Face Of...
*Year: 2018
*Genre: Brutal Death Metal
*Country: Japan (IMG:https://metalarea.org/forum/style_images/flags/Japan.png)
*Format: mp3@CBR320kbps
*Size: 46MB

Tracklist:
1. Shock 00:19 instrumental
2. Death Line 03:19
3. Jackal 02:58
4. Cold Moon 02:33
5. Never Give Up 03:13
6. In the Face of... 04:27
7. Human Gas 03:11
******************************
Total playing time: 20:00



Extended info
Gokucho Guitars (2004-2016), Vocals (2016-present), Bass (2017-present)
See also: ex-Rest in Gore
Takashi Orikasa Vocals (2005-2011, 2017-present), Bass (2016-present)
Mick Drums (2014-present)
See also: Murder Head, ex-Mandrake, GuzlaMozla, Total Fury, ex-Dreissen
Takumi Akatsuka Guitars (2016-present)
See also: ex-Gevotais Borken, ex-Proud of Grace, Weepray, ex-Engremxx
Suguru Guitars (2017-present)
See also: Labia Majora, Monosugoi Hikari


Technical info
(IMG:https://metalarea.org/images/spectrogram/2018_Mar/38daa10dfe0cfca5801e7610c6b151cf.png)
Input File: 02 Death Line.mp3
Channels : 2
Sample Rate : 44100
Precision : 16-bit
Duration : 00:03:19.23 = 8786087 samples = 14942.3 CDDA sectors
File Size : 7.97M
Bit Rate : 320k
Sample Encoding: MPEG audio (layer I, II or III)
Comments :
Title=Death Line
Artist=Gorevent
Album=In The Face Of...
Tracknumber=2
Year=2018
Genre=Slamming Brutal Death Metal
Discnumber=1



Register


Go to the top of the page
  Insert nick Quick quote
+Quote Post

Reply to this topicStart new topic
1 User(s) are reading this topic (1 Guests and 0 Anonymous Users)
0 Members:

 



- Lo-Fi Version Support form
Copyrights and abuse reports form
Time is now: 25th September 2018 - 23:33:06