Welcome Guest ( Log In | Register )

> Splinter - Estado Primitivo (2016), Old School Thrash Metal
post Mar 14 2018, 06:34:25
Post #1

Правь статус, ####!111
**************
Group: Металариец
Posts: 13,369
Releases: 9423
From: Г.Харьков
On Forums: 6 years 1 month
Thanks: 153767 time(s)
Unknown


(IMG:https://metalarea.org/images/audiocovers/2018_Mar/acov_tid303242_thumb.jpg)

*Artist: Splinter
*Album: Estado Primitivo
*Year: 2016
*Genre: Old School Thrash Metal
*Country: Argentina (IMG:https://metalarea.org/forum/style_images/flags/Argentina.png)
*Format: mp3@CBR320kbps
*Size: 114MB

Tracklist:
1. Diluvio Ocular 06:52
2. El Contrario 06:07
3. 53 04:35
4. Estado Primitivo 06:18
5. Mundo Reptante 04:32
6. Oro Negro 07:03
7. Sucursal del Infierno 06:36
8. Antihumano 04:13
9. Redención 04:11
******************************
Total playing time: 50:27




Extended info
GooglePlay Rip
Martin Carena Bass
Facundo Ascani Drums
Alan Ascani Guitars
Ignacio Irigoin Vocals, Guitars
See also: ex-Raptore


Technical info
(IMG:https://metalarea.org/images/spectrogram/2018_Mar/2f4aec01888dc550b4daeaeeb41a1ad5.png)
Input File: 02 - El Contrario.mp3
Channels : 2
Sample Rate : 44100
Precision : 16-bit
Duration : 00:06:07.86 = 16222802 samples = 27589.8 CDDA sectors
File Size : 14.9M
Bit Rate : 323k
Sample Encoding: MPEG audio (layer I, II or III)
Comments :
Title=El Contrario
Artist=Splinter
Album=Estado Primitivo
Tracknumber=2/9
Year=2016



Register


Go to the top of the page
  Insert nick Quick quote
+Quote Post
 
Start new topic
Replies (1 - 1)
post Mar 18 2018, 04:19:43
Post #2

South Of Heaven /адепт ВУДУ
**************
Group: Металариец
Posts: 12,535
Releases: 7
From: Санкт-Петербург
On Forums: 8 years 2 months
Thanks: 4503 time(s)
Russian Federation


Вокал не монтана, да ещё и не на халяльной мове.
Go to the top of the page
  Insert nick Quick quote
+Quote Post

Reply to this topicStart new topic
1 User(s) are reading this topic (1 Guests and 0 Anonymous Users)
0 Members:

 



- Lo-Fi Version Support form
Copyrights and abuse reports form
Time is now: 21st June 2018 - 14:52:27