Welcome Guest ( Log In | Register )

> Drauggard - Immer Werden (2018), Progressive Black Metal (D)
post Mar 14 2018, 07:01:25
Post #1

Правь статус, ####!111
**************
Group: Металариец
Posts: 14,343
Releases: 9939
From: Г.Харьков
On Forums: 6 years 4 months
Thanks: 163091 time(s)
Unknown


(IMG:https://metalarea.org/images/audiocovers/2018_Mar/acov_tid303243_thumb.jpg)

*Artist: Drauggard
*Album: Immer Werden
*Year: 2018
*Genre: Progressive Black Metal
*Country: Russian Federation (IMG:https://metalarea.org/forum/style_images/flags/Russian%20Federation.png)
*Format: mp3@CBR320kbps
*Size: 105MB

Tracklist:
01. No One Behind (Никого За Тобой!)
02. Worm Shall Pay for the Light (Червь Заплатит За Свет!)
03. Noekken
04. Aptrgangr
05. Delirium Tremens
06. Loki (Dance Song)
07. My Joy Irks You (Радость В Гадость)
08. Returnal
09. Meer Gegen Schwere
******************************
Total playing time: 45:34



Preview 3

Extended info
Dmitry Ulybin Guitars (2003-present), Vocals (2014-present)
See also: Memorain (live), ex-Contradiction (live)
Lorenz Lechner Drums (2013-present)
See also: Asmodeus, Obsidian Chamber, Seduced, ex-Nightforest, Horns of Belial, ex-Mortipherus
Yuriy Korotovskikh Bass (2014-present)
See also: Fatal Band, ex-Rest in Pain, Winged Goat, ex-Grace Disgraced, ex-Sinful, ex-Путь Солнца


Technical info
(IMG:https://metalarea.org/images/spectrogram/2018_Mar/f9314ad56ab184389f4ed2e245eee816.png)
Input File: 02. Worm Shall Pay for the Light.mp3
Channels : 2
Sample Rate : 44100
Precision : 16-bit
Duration : 00:00:00.39 = 16979 samples = 28.8759 CDDA sectors
File Size : 15.6M
Bit Rate : 324M
Sample Encoding: MPEG audio (layer I, II or III)
Comments :
Title=Worm Shall Pay for the Light
Artist=Drauggard
Album=Immer Werden
Tracknumber=2/9
Year=2018-18-20
Discnumber=1/1



Register


Go to the top of the page
  Insert nick Quick quote
+Quote Post
 
Start new topic
Replies (1 - 1)
post Mar 14 2018, 08:57:32
Post #2

Правь статус, ####!111
**************
Group: Металариец
Posts: 14,343
Releases: 9939
From: Г.Харьков
On Forums: 6 years 4 months
Thanks: 163091 time(s)
Unknown


Register


Go to the top of the page
  Insert nick Quick quote
+Quote Post

Reply to this topicStart new topic
1 User(s) are reading this topic (1 Guests and 0 Anonymous Users)
0 Members:

 



- Lo-Fi Version Support form
Copyrights and abuse reports form
Time is now: 26th September 2018 - 00:37:55