Welcome Guest ( Log In | Register )

 
Reply to this topicStart new topic
> Ozama - Río De Basura [demo] (2017), Black Metal
post Mar 14 2018, 07:30:22
Post #1

Маньяк
**********
Group: Металариец
Posts: 1,262
Releases: 968
From: Prešov
On Forums: 4 years 2 months
Thanks: 22574 time(s)
Slovakia


(IMG:http://metalarea.org/images/audiocovers/2018_Mar/acov_tid303245_thumb.jpg)

*Artist: Ozama
*Album: Río De Basura [demo]
*Year: 2017
*Genre: Black Metal
*Country: Dominican Republic (IMG:http://metalarea.org/forum/style_images/flags/Dominican%20Republic.png)
*Format: mp3@VBR245kbps
*Size: 56MB

Tracklist:
1. Delirios Matutinos
2. Sol
3. Concusión
4. Río De Basura
5. Zafacón Chimenea
******************************
Total playing time: 28:51



Extended info
Morboso Macabro Grotesco - MMG 005


Technical info
(IMG:http://metalarea.org/images/spectrogram/2018_Mar/9a627cd5daf5bf64eb96b4e741673834.png)
Input File: 01 Delirios Matutinos.mp3
Channels : 2
Sample Rate : 44100
Precision : 16-bit
Duration : 00:04:55.73 = 13041781 samples = 22179.9 CDDA sectors
File Size : 9.59M
Bit Rate : 260k
Sample Encoding: MPEG audio (layer I, II or III)
Comments :
Title=Delirios Matutinos
Artist=Ozama
Album=RГ­o De Basura
Tracknumber=01/5
Year=2017
Genre=Black Metal
Discnumber=1/1



Register


This post has been edited by Borderline1991: Mar 14 2018, 16:36:43


Go to the top of the page
  Insert nick Quick quote
+Quote Post

Reply to this topicStart new topic
1 User(s) are reading this topic (1 Guests and 0 Anonymous Users)
0 Members:

 



- Lo-Fi Version Support form
Copyrights and abuse reports form
Time is now: 21st June 2018 - 14:56:21