Welcome Guest ( Log In | Register )

 
Reply to this topicStart new topic
> Celestial Grave - Chthonic Katharsis [compilation] (2017), Black Metal
post Mar 14 2018, 07:35:46
Post #1

...
Group Icon
Group: S-moderation team
Posts: 7,736
Releases: 1299
On Forums: 7 years 9 months
Thanks: 37181 time(s)
Croatia


(IMG:http://metalarea.org/images/audiocovers/2018_Mar/acov_tid303246_thumb.jpg)

*Artist: Celestial Grave
*Album: Chthonic Katharsis [compilation]
*Year: 2017
*Genre: Black Metal
*Country: Finland (IMG:http://metalarea.org/forum/style_images/flags/Finland.png)
*Format: mp3@CBR320kbps
*Size: 60MB

Tracklist:
1. The Heartbeats Drum 05:14
2. The Bearer of Death 04:54
3. Burial Ground Trance 04:13
4. Pvtrefactio 06:06
5. Deteriorating Angel 05:54
******************************
Total playing time: 26:21

Extended info
Iron Bonehead Productions CD, 500 copies.


Technical info
(IMG:http://metalarea.org/images/spectrogram/2018_Mar/c4210d390a2d924455504a8e4111531c.png)
Input File: 1. The Heartbeats Drum.mp3
Channels : 2
Sample Rate : 44100
Precision : 16-bit
Duration : 00:05:14.75 = 13880563 samples = 23606.4 CDDA sectors
File Size : 12.6M
Bit Rate : 320k
Sample Encoding: MPEG audio (layer I, II or III)
Comments :
Title=The Heartbeats Drum
Artist=Celestial Grave
Album=Chthonic Katharsis
Tracknumber=1
Year=2017
Genre=Black Metal



Register


Go to the top of the page
  Insert nick Quick quote
+Quote Post

Reply to this topicStart new topic
1 User(s) are reading this topic (1 Guests and 0 Anonymous Users)
0 Members:

 



- Lo-Fi Version Support form
Copyrights and abuse reports form
Time is now: 12th December 2018 - 17:30:29