Welcome Guest ( Log In | Register )

 
Reply to this topicStart new topic
> Golden Milk & Sacramence - Golden Milk/Sacramence [split] (2013), Black Metal/Punk | Atmospheric Black/Doom Metal/Noise
post Mar 14 2018, 08:08:42
Post #1

...
Group Icon
Group: S-moderation team
Posts: 7,010
Releases: 1286
On Forums: 7 years 6 months
Thanks: 34499 time(s)
Croatia


(IMG:http://metalarea.org/images/audiocovers/2018_Mar/acov_tid303248_thumb.jpg)

*Artist: Golden Milk & Sacramence
*Album: Golden Milk/Sacramence [split]
*Year: 2013
*Genre: Black Metal/Punk | Atmospheric Black/Doom Metal/Noise
*Country: United States (IMG:http://metalarea.org/forum/style_images/flags/United%20States.png) | United States (IMG:http://metalarea.org/forum/style_images/flags/United%20States.png)
*Format: mp3@VBR294kbps
*Size: 32MB

Tracklist:
Golden Milk:
1. Through Force and Intolerance Pt I 03:27
2. Through Force and Intolerance Pt II 02:06
3. Through Force and Intolerance Pt III 02:33
Sacramence:
4. Revered Filth 04:31
5. Decrepit Obedience 05:40
******************************
Total playing time: 18:17



Extended info
Born Dead Records tape, 50 copies.


Technical info
(IMG:http://metalarea.org/images/spectrogram/2018_Mar/7b66c827f53d9e20817ba006badca444.png)
Input File: 01 Through Force And Intolerance I.mp3
Channels : 2
Sample Rate : 44100
Precision : 16-bit
Duration : 00:03:27.49 = 9150309 samples = 15561.8 CDDA sectors
File Size : 7.58M
Bit Rate : 292k
Sample Encoding: MPEG audio (layer I, II or III)
Comments :
Title=Through Force And Intolerance I
Artist=Golden Milk
Album=Golden Milk/Sacramence Split
Tracknumber=01/5
Year=2013
Discnumber=1/1



Register


Go to the top of the page
  Insert nick Quick quote
+Quote Post

Reply to this topicStart new topic
1 User(s) are reading this topic (1 Guests and 0 Anonymous Users)
0 Members:

 



- Lo-Fi Version Support form
Copyrights and abuse reports form
Time is now: 26th September 2018 - 00:03:55