Welcome Guest ( Log In | Register )

 
Reply to this topicStart new topic
> Helcaraxë & Dumal - Raise The Hammer [split] (2015), Death Metal | Black Metal (D)(D6)
post Mar 14 2018, 08:51:38
Post #1

...
Group Icon
Group: S-moderation team
Posts: 7,010
Releases: 1286
On Forums: 7 years 6 months
Thanks: 34499 time(s)
Croatia


(IMG:http://metalarea.org/images/audiocovers/2018_Mar/acov_tid303251_thumb.jpg)

*Artist: Helcaraxë & Dumal
*Album: Raise The Hammer [split]
*Year: 2015
*Genre: Death Metal | Black Metal
*Country: United States (IMG:http://metalarea.org/forum/style_images/flags/United%20States.png) | United States (IMG:http://metalarea.org/forum/style_images/flags/United%20States.png)
*Format: mp3@CBR320kbps
*Size: 29MB

Tracklist:
Helcaraxë:
1. The Second Coming 01:31
2. Monolith 01:49
3. Wotan Mit Uns 01:44
Dumal:
4. In a Deep and Lonely Grave 07:09
******************************
Total playing time: 12:13

Extended info
Tape released by Vanguard Productions.


Technical info
(IMG:http://metalarea.org/images/spectrogram/2018_Mar/a55236dcf8f1b7deb1dd4839cfa90875.png)
Input File: 01 - Helcaraxe - The Second Coming.mp3
Channels : 2
Sample Rate : 44100
Precision : 16-bit
Duration : 00:01:31.05 = 4015305 samples = 6828.75 CDDA sectors
File Size : 3.74M
Bit Rate : 328k
Sample Encoding: MPEG audio (layer I, II or III)
Comments :
Title=The Second Coming
Artist=HelcaraxГ«
Album=Raise the Hammer
Tracknumber=1
Year=2015



Register


Go to the top of the page
  Insert nick Quick quote
+Quote Post

Reply to this topicStart new topic
1 User(s) are reading this topic (1 Guests and 0 Anonymous Users)
0 Members:

 



- Lo-Fi Version Support form
Copyrights and abuse reports form
Time is now: 26th September 2018 - 00:48:13