Welcome Guest ( Log In | Register )

 
Reply to this topicStart new topic
> Reptile - Critical (2018), Groove Metal (D4)
post Mar 14 2018, 14:02:00
Post #1

Serial Uploader
Group Icon
Group: V.I.P
Posts: 33,056
Releases: 31341
From: Lithuania
On Forums: 10 years 3 months
Thanks: 358554 time(s)
Lithuania


(IMG:https://metalarea.org/images/audiocovers/2018_Mar/acov_tid303263_thumb.jpg)

*Artist: Reptile
*Album: Critical
*Year: 2018
*Genre: Groove Metal
*Country: United States (IMG:https://metalarea.org/forum/style_images/flags/United%20States.png)
*Format: mp3@CBR320kbps
*Size: 76MB

Tracklist:
01. Coma 03:42
02. Godman 03:47
03. MindCage 05:02
04. Reptile 03:53
05. Indecorum 04:32
06. Mortal Reaction 04:32
07. Sacrifice 03:43
08. War Virus 02:28
09. End Of The World 04:43
******************************
Total playing time: 36:22

Extended info
Scene-rip


Technical info
(IMG:https://metalarea.org/images/spectrogram/2018_Mar/4568c44f26ff35a89e6918ccc8a86094.png)
Input File: 02-reptile-godman-5166cd8d.mp3
Channels : 2
Sample Rate : 44100
Precision : 16-bit
Duration : 00:03:47.08 = 10014228 samples = 17031 CDDA sectors
File Size : 9.08M
Bit Rate : 320k
Sample Encoding: MPEG audio (layer I, II or III)
Comments :
Title=Godman
Artist=Reptile
Album=Critical
Tracknumber=2/9
Year=2018
Genre=9



Register


Go to the top of the page
  Insert nick Quick quote
+Quote Post

Reply to this topicStart new topic
1 User(s) are reading this topic (1 Guests and 0 Anonymous Users)
0 Members:

 



- Lo-Fi Version Support form
Copyrights and abuse reports form
Time is now: 19th September 2018 - 03:50:07