Welcome Guest ( Log In | Register )

> Venin - La Morsure Du Temps (2018), Heavy Metal
post Mar 15 2018, 14:00:01
Post #1

Serial Uploader
Group Icon
Group: V.I.P
Posts: 37,112
Releases: 35296
From: Lithuania
On Forums: 11 years 11 months
Thanks: 419067 time(s)
Lithuania


(IMG:https://metalarea.org/images/audiocovers/2018_Mar/acov_tid303305_thumb.png)

*Artist: Venin
*Album: La Morsure Du Temps
*Year: 2018
*Genre: Heavy Metal
*Country: France (IMG:https://metalarea.org/forum/style_images/flags/France.png)
*Format: mp3@CBR320kbps
*Size: 109MB

Tracklist:
01. Trafiquant De Rock
02. Guet-Apens
03. La Morsure Du Temps
04. L'instant
05. La Nuit Des Fous
06. La Faute Aux Souvenirs
07. Les Tourments
08. Souviens-Toi De Moi
09. La Raison Du Plus Fou
******************************
Total playing time: 47:11



Technical info
(IMG:https://metalarea.org/images/spectrogram/2018_Mar/b896b592fe90ac973d453d630ff6e933.png)
Input File: 02. Guet-apens.mp3
Channels : 2
Sample Rate : 44100
Precision : 16-bit
Duration : 00:05:18.78 = 14058154 samples = 23908.4 CDDA sectors
File Size : 12.9M
Bit Rate : 323k
Sample Encoding: MPEG audio (layer I, II or III)
Comments :
Title=Guet-apens
Artist=VENIN
Album=LA MORSURE DU TEMPS
Tracknumber=2/9
Year=2018
Genre=9
Discnumber=1/1



Register


Go to the top of the page
  Insert nick Quick quote
+Quote Post
 
Start new topic
Replies (1 - 5)
post Mar 15 2018, 20:53:14
Post #2

MDM-Thrash Metal
**************
Group: Металариец
Posts: 9,515
Releases: 861
From: Одесса
On Forums: 12 years 9 months
Thanks: 22571 time(s)
Ukraine


Register

https://www.youtube.com/watch?v=kp_mu28nR2w


Thanks:
Go to the top of the page
  Insert nick Quick quote
+Quote Post
post Mar 16 2018, 08:00:23
Post #3

hearer & reader
**************
Group: Металариец
Posts: 8,695
Releases: 140
From: Moscow
On Forums: 12 years 8 months
Thanks: 8709 time(s)
Russian Federation




А тут их харда из 80-х -
Go to the top of the page
  Insert nick Quick quote
+Quote Post
post May 18 2020, 20:09:08
Post #4

Шесть Литров
******
Group: Металариец
Posts: 685
Releases: 0
On Forums: 1 year 10 months
Thanks: 20 time(s)
Serbia


PLS REUPLOAD
Go to the top of the page
  Insert nick Quick quote
+Quote Post
post May 23 2020, 13:05:32
Post #5

Шесть Литров
******
Group: Металариец
Posts: 685
Releases: 0
On Forums: 1 year 10 months
Thanks: 20 time(s)
Serbia


PLS REUPLOAD
Go to the top of the page
  Insert nick Quick quote
+Quote Post
post Yesterday, 05:43:53
Post #6

Group Icon
Group: S-moderation team
Posts: 15,552
Releases: 1440
From: Zagreb
On Forums: 9 years 3 months
Thanks: 69079 time(s)
Croatia


Register


Thanks:
(1) Olethros,
Go to the top of the page
  Insert nick Quick quote
+Quote Post

Reply to this topicStart new topic
2 User(s) are reading this topic (2 Guests and 0 Anonymous Users)
0 Members:

 



- Lo-Fi Version Support form
Copyrights and abuse reports form
Time is now: 28th May 2020 - 09:42:18