Welcome Guest ( Log In | Register )

> Funeral Rites - The Wintermoon... [demo] (1996), Black Metal
post Mar 20 2018, 08:19:14
Post #1


Group Icon
Group: S-moderation team
Posts: 10,813
Releases: 1438
From: Zagreb
On Forums: 8 years 3 months
Thanks: 46685 time(s)
Croatia


(IMG:http://metalarea.org/images/audiocovers/2018_Mar/acov_tid303533_thumb.jpg)

*Artist: Funeral Rites
*Album: The Wintermoon... [demo]
*Year: 1996
*Genre: Black Metal
*Country: Japan (IMG:http://metalarea.org/forum/style_images/flags/Japan.png)
*Format: mp3@CBR192kbps
*Size: 39MB

Tracklist:
1. Photism 01:43
2. The Wintermoon 03:57
3. Beyond the Gates 08:17
4. Lost Misery 09:22
5. After My Illusion 03:51
6. Blasphemer (Sodom cover) 02:47
******************************
Total playing time: 29:57

Technical info
(IMG:http://metalarea.org/images/spectrogram/2018_Mar/ff8f499469783501a2cfbaaf3661b3d5.png)
Input File: 02-the_wintermoon-berc.mp3
Channels : 2
Sample Rate : 44100
Precision : 16-bit
Duration : 00:03:57.74 = 10484158 samples = 17830.2 CDDA sectors
File Size : 5.71M
Bit Rate : 192k
Sample Encoding: MPEG audio (layer I, II or III)
Comments :
Title=The Wintermoon
Artist=Funeral Rites
Album=The Wintermoon...
Year=1996
Genre=138



Register


Go to the top of the page
  Insert nick Quick quote
+Quote Post
 
Start new topic
Replies (1 - 3)
post Mar 20 2018, 09:32:08
Post #2


***********
Group: Металариец
Posts: 1,972
Releases: 14
From: Казань
On Forums: 9 years 9 months
Thanks: 2493 time(s)
Russian Federation


Чувствуется школа Hellhammer образца Satanic Rites


Thanks:
(1) Evilded,
Go to the top of the page
  Insert nick Quick quote
+Quote Post
post Mar 25 2018, 17:50:17
Post #3

Мегаманьяк
***********
Group: Металариец
Posts: 1,519
Releases: 24
From: Spain
On Forums: 11 years 9 months
Thanks: 1201 time(s)
Spain


QUOTE


Thanks:
(1) artscald,
Go to the top of the page
  Insert nick Quick quote
+Quote Post
post Jun 20 2018, 15:14:42
Post #4

Group: Подсевший
Posts: 11
Releases: 0
On Forums: 11 months 4 weeks
Thanks: 1 time(s)
Romania


Отличная банда - япошки всегда с трэшачком!
Go to the top of the page
  Insert nick Quick quote
+Quote Post

Reply to this topicStart new topic
1 User(s) are reading this topic (1 Guests and 0 Anonymous Users)
0 Members:

 



- Lo-Fi Version Support form
Copyrights and abuse reports form
Time is now: 19th June 2019 - 03:53:28