Welcome Guest ( Log In | Register )

> Primal Cult - Perennial Fire (2018), Atmospheric/Melodic Black Metal
post Mar 20 2018, 18:54:21
Post #1

Аннигилятор пивА
Group Icon
Group: V.I.P
Posts: 52,360
Releases: 16550
From: Koenigsberg - TILZIT
On Forums: 14 years 1 month
Thanks: 365582 time(s)
Russian Federation


(IMG:https://metalarea.org/images/audiocovers/2018_Mar/acov_tid303571_thumb.png)

*Artist: Primal Cult
*Album: Perennial Fire
*Year: 2018
*Genre: Atmospheric/Melodic Black Metal
*Country: Greece (IMG:https://metalarea.org/forum/style_images/flags/Greece.png)
*Format: mp3@CBR320kbps
*Size: 105MB

Tracklist:
1. War, Father 04:20
2. Sacred Gaia 06:15
3. The Chthonic Uprising 04:40
4. My Quest for Light 07:06
5. Vernal Ascendance 06:45
6. Grant Me the Void 07:28
7. Crossroads to Eternity 07:07
******************************
Total playing time: 43:45




Extended info
Raven - Drums, Bass (2012-present)
Alchemy - Vocals, Guitars (2012-present)
Deathlicon - Vocals, Guitars (2012-present) See also: Sanctimonious
Melmoth - Keyboards (2017-present)


Technical info
(IMG:https://metalarea.org/images/spectrogram/2018_Mar/fc020a2e4c6fa57eed90c0bfdf8c7056.png)
Input File: 03 The Chthonic Uprising.mp3
Channels : 2
Sample Rate : 44100
Precision : 16-bit
Duration : 00:04:40.53 = 12371329 samples = 21039.7 CDDA sectors
File Size : 11.6M
Bit Rate : 331k
Sample Encoding: MPEG audio (layer I, II or III)
Comments :
Title=The Chthonic Uprising
Artist=Primal Cult
Album=Perennial Fire
Tracknumber=03
Year=2018



Register

Register


Go to the top of the page
  Insert nick Quick quote
+Quote Post
 
Start new topic
Replies (1 - 7)
post Mar 21 2018, 02:48:29
Post #2

\m/
Group Icon
Group: S-moderation team
Posts: 7,794
Releases: 19
From: Петропавловск-Камчатский
On Forums: 11 years 3 weeks
Thanks: 7630 time(s)
Russian Federation


Added links by Samaritianin
Go to the top of the page
  Insert nick Quick quote
+Quote Post
post Mar 21 2018, 03:53:09
Post #3

Аннигилятор пивА
Group Icon
Group: V.I.P
Posts: 52,360
Releases: 16550
From: Koenigsberg - TILZIT
On Forums: 14 years 1 month
Thanks: 365582 time(s)
Russian Federation


Primal Hellenic black metal

MIRROR
Register






Go to the top of the page
  Insert nick Quick quote
+Quote Post
post Mar 21 2018, 07:54:47
Post #4

::
**************
Group: Металариец
Posts: 2,295
Releases: 3
From: Воронеж
On Forums: 10 years 2 months
Thanks: 1045 time(s)
Russian Federation


Это хороший альбом, в лоу уже заслушал


Thanks:
(1) Hughes,
Go to the top of the page
  Insert nick Quick quote
+Quote Post
post Mar 21 2018, 12:59:48
Post #5

Маньяк
**********
Group: Металариец
Posts: 1,034
Releases: 4
From: Харьков
On Forums: 11 years 10 months
Thanks: 368 time(s)
Ukraine


Два раза прослушал и хватит с него. Еще вряд ли потянет переслушивать.
Go to the top of the page
  Insert nick Quick quote
+Quote Post
post Mar 21 2018, 17:52:00
Post #6

Маньяк
**********
Group: Металариец
Posts: 1,324
Releases: 0
From: Russian Federation - St.Petersburg
On Forums: 11 years 4 months
Thanks: 335 time(s)
Russian Federation


Немного однообразный музон, но всё равно очень не плохо! (IMG:style_emoticons/default/20.gif)
Go to the top of the page
  Insert nick Quick quote
+Quote Post
post Mar 24 2018, 13:11:57
Post #7

Солнце за Нас !
***
Group: Завсегдатай
Posts: 281
Releases: 0
On Forums: 13 years 4 months
Thanks: 65 time(s)
Belarus


Очень понравился. И мелодично и достаточно мощно. Сочный звук. Хочется переслушивать.
Go to the top of the page
  Insert nick Quick quote
+Quote Post
post Apr 8 2018, 16:15:39
Post #8

Stultus Anethum Siccum.
******
Group: Металариец
Posts: 649
Releases: 0
On Forums: 11 years 5 months
Thanks: 77 time(s)
Unknown


Отличное музло!
Несмотря на повторность в рамках жанра, что-то огненно-перенниальное в нём таки есть.
Go to the top of the page
  Insert nick Quick quote
+Quote Post

Reply to this topicStart new topic
2 User(s) are reading this topic (2 Guests and 0 Anonymous Users)
0 Members:

 



- Lo-Fi Version Support form
Copyrights and abuse reports form
Time is now: 9th July 2020 - 01:47:03