Welcome Guest ( Log In | Register )

> Omnious - Mechanics Of The Unseen [ep] (2018), Death Metal
post Mar 21 2018, 20:11:55
Post #1

Правь статус, ####!111
**************
Group: Металариец
Posts: 3,746
Releases: 3411
From: Одесса
On Forums: 12 years 9 months
Thanks: 36137 time(s)
Ukraine


(IMG:http://metalarea.org/images/audiocovers/2018_Mar/acov_tid303621_thumb.jpg)

*Artist: Omnious
*Album: Mechanics Of The Unseen [ep]
*Year: 2018
*Genre: Death Metal
*Country: Netherlands (IMG:http://metalarea.org/forum/style_images/flags/Netherlands.png)
*Format: mp3@CBR320kbps
*Size: 52MB

Tracklist:
1. Declaration 03:24
2. Ordeal 03:52
3. Cycles 03:59
4. Currents 06:16
5. Mechanics 04:00
******************************
Total playing time: 21:31



Extended info
Line - up:

Jelle Schuurmans - Guitars, Bass, Songwriting
Eric de Windt - Vocals, Drums, Lyrics, Songwriting (Neocaesar, Temple, Supreme Pain, ex-Deströyer 666, ex-Inhume, ex-Prostitute Disfigurement, ex-Severe Torture, ex-Sinister, ex-Warfather)

(IMG:https://www.metal-archives.com/images/3/5/4/0/3540438162_photo.jpg?4804)


Technical info
(IMG:http://metalarea.org/images/spectrogram/2018_Mar/d457da3de7ba57dca40e23ce6ae363f6.png)
Input File: 01 Declaration.mp3
Channels : 2
Sample Rate : 44100
Precision : 16-bit
Duration : 00:03:24.38 = 9013070 samples = 15328.4 CDDA sectors
File Size : 8.18M
Bit Rate : 320k
Sample Encoding: MPEG audio (layer I, II or III)
Comments :
Title=Declaration
Artist=Omnious
Album=Mechanics of the Unseen (EP)
Tracknumber=1
Year=2018
Genre=22



Register


Go to the top of the page
  Insert nick Quick quote
+Quote Post
 
Start new topic
Replies (1 - 2)
post Jun 3 2020, 21:53:40
Post #2

brutalcesar
**************
Group: Металариец
Posts: 18,091
Releases: 69
From: Рязань
On Forums: 12 years 1 month
Thanks: 10122 time(s)
Russian Federation


Register
Go to the top of the page
  Insert nick Quick quote
+Quote Post
post Feb 23 2021, 19:01:41
Post #3

Мегаманьяк
***********
Group: Металариец
Posts: 1,941
Releases: 210
From: Omsk, Siberia
On Forums: 11 years 11 months
Thanks: 4311 time(s)
Russian Federation


newer links (320):
Register


Thanks:
Go to the top of the page
  Insert nick Quick quote
+Quote Post

Reply to this topicStart new topic
1 User(s) are reading this topic (1 Guests and 0 Anonymous Users)
0 Members:

 



- Lo-Fi Version Support form
Copyrights and abuse reports form
Time is now: 6th March 2021 - 06:10:47