Welcome Guest ( Log In | Register )

> Bajopresión - La Máquina De Sueños (2018), Progressive/Power Metal
post Mar 23 2018, 07:14:21
Post #1

Правь статус, ####!111
**************
Group: Металариец
Posts: 20,311
Releases: 13846
From: Г.Харьков
On Forums: 7 years 8 months
Thanks: 242305 time(s)
Unknown


(IMG:https://metalarea.org/images/audiocovers/2018_Mar/acov_tid303718_thumb.jpg)

*Artist: Bajopresión
*Album: La Máquina De Sueños
*Year: 2018
*Genre: Progressive/Power Metal
*Country: Spain (IMG:https://metalarea.org/forum/style_images/flags/Spain.png)
*Format: mp3@CBR320kbps
*Size: 112MB

Tracklist:
1. El Alquimista (feat. Fernando Ponce De Leon)
2. Delirios
3. Cambiando El Destino
4. Condenado A Divagar
5. Ultimo Adios
6. Falsedad
7. Cien Anos Mas
8. Tu Mismo (feat. Leo Jimenez)
9. Parasitos
10. Hermanos de Sangre (feat. Manuel Escudero, Ago)
11. Juicio Final (feat. Victor De Andres)
******************************
Total playing time: 48:20



Extended info
Voz: Antonio Robledillo
Guitarra: Rodrigo Álvarez-Martín
Batería: Nacho Ortiz
Bajo: Javier Canseco


Technical info
(IMG:https://metalarea.org/images/spectrogram/2018_Mar/4affb4348354cff8a527aa1cac91461b.png)
Input File: 02 - Delirios.mp3
Channels : 2
Sample Rate : 44100
Precision : 16-bit
Duration : 00:04:14.25 = 11212293 samples = 19068.5 CDDA sectors
File Size : 10.3M
Bit Rate : 325k
Sample Encoding: MPEG audio (layer I, II or III)
Comments :
Title=Delirios
Artist=BajopresiГіn
Album=La MГЎquina de SueГ±os
Tracknumber=2/11
Year=2018



Register


Go to the top of the page
  Insert nick Quick quote
+Quote Post
 
Start new topic
Replies (1 - 4)
post Mar 23 2018, 12:34:06
Post #2

Литр
*
Group: Подсевший
Posts: 65
Releases: 0
On Forums: 1 year 10 months
Thanks: 3 time(s)
Argentina


Thanks!!! (IMG:style_emoticons/default/dwarf-1.gif)
Go to the top of the page
  Insert nick Quick quote
+Quote Post
post Mar 23 2018, 14:18:36
Post #3

Наливай!
**************
Group: Металариец
Posts: 5,532
Releases: 27
From: Москва-Бибирево
On Forums: 11 years 10 months
Thanks: 2708 time(s)
Russian Federation


Мачадо красавчик, продолжает лепить невнятное дерьмецо.


Thanks:
Go to the top of the page
  Insert nick Quick quote
+Quote Post
post Jan 14 2020, 12:33:26
Post #4

Правь статус, ####!111
**************
Group: Металариец
Posts: 6,989
Releases: 0
From: Москва
On Forums: 10 years 5 months
Thanks: 13549 time(s)
Russian Federation


Перезалейте плз
Go to the top of the page
  Insert nick Quick quote
+Quote Post
post Jan 17 2020, 19:57:30
Post #5


Group Icon
Group: S-moderation team
Posts: 13,385
Releases: 1439
From: Zagreb
On Forums: 8 years 10 months
Thanks: 58789 time(s)
Croatia


Register


Thanks:
Go to the top of the page
  Insert nick Quick quote
+Quote Post

Reply to this topicStart new topic
2 User(s) are reading this topic (2 Guests and 0 Anonymous Users)
0 Members:

 



- Lo-Fi Version Support form
Copyrights and abuse reports form
Time is now: 23rd January 2020 - 23:38:55