Welcome Guest ( Log In | Register )

> Methhead - Escape From Reality (2017), Old School Thrash Metal
post Mar 26 2018, 03:25:24
Post #1

Правь статус, ####!111
**************
Group: Металариец
Posts: 13,943
Releases: 9727
From: Г.Харьков
On Forums: 6 years 3 months
Thanks: 159625 time(s)
Unknown


(IMG:https://metalarea.org/images/audiocovers/2018_Mar/acov_tid303845_thumb.jpg)

*Artist: Methhead
*Album: Escape From Reality
*Year: 2017
*Genre: Old School Thrash Metal
*Country: Germany (IMG:https://metalarea.org/forum/style_images/flags/Germany.png)
*Format: mp3@CBR320kbps
*Size: 85MB

Tracklist:
1. Exhale
2. Grave of Brains
3. The Leading Hands
4. We Will Obey
5. Fatal Addiction
6. Warm Up
7. Paranioid Run
8. Abyss of Humanity
9. Sleep Paralysis
10. My Will Be Done
11. Prophet
12. Escape from Reality
******************************
Total playing time: 36:23



Extended info
Magnus Bass (2013-present)
Fabian Drums (2013-present)
Tuschi Guitars (2013-present)
See also: Ravage
Flemming Vocals, Guitars (2013-present)



Technical info
(IMG:https://metalarea.org/images/spectrogram/2018_Mar/0a967c934698eb37190b511d1fb5d8e2.png)
Input File: 02 - Grave of Brains.mp3
Channels : 2
Sample Rate : 44100
Precision : 16-bit
Duration : 00:03:10.35 = 8394215 samples = 14275.9 CDDA sectors
File Size : 7.73M
Bit Rate : 325k
Sample Encoding: MPEG audio (layer I, II or III)
Comments :
Title=Grave of Brains
Artist=Methhead
Album=Escape from Reality
Tracknumber=2/12
Year=2017



Register


Go to the top of the page
  Insert nick Quick quote
+Quote Post
 
Start new topic
Replies (1 - 3)
post Mar 26 2018, 07:55:00
Post #2

Правь статус, ####!111
**************
Group: Металариец
Posts: 13,943
Releases: 9727
From: Г.Харьков
On Forums: 6 years 3 months
Thanks: 159625 time(s)
Unknown


Register


Go to the top of the page
  Insert nick Quick quote
+Quote Post
post Mar 27 2018, 17:38:26
Post #3

Аполітичний
**************
Group: Металариец
Posts: 5,137
Releases: 143
From: Тимчасово окупована територія - Юзівка
On Forums: 9 years 11 months
Thanks: 5346 time(s)
Ukraine


Бодрый мелодичный трешачок (IMG:style_emoticons/default/20.gif)


Thanks:
Go to the top of the page
  Insert nick Quick quote
+Quote Post
post Apr 16 2018, 14:08:39
Post #4

South Of Heaven /адепт ВУДУ
**************
Group: Металариец
Posts: 12,643
Releases: 7
From: Санкт-Петербург
On Forums: 8 years 4 months
Thanks: 4599 time(s)
Russian Federation


Вокал не понравился.
Go to the top of the page
  Insert nick Quick quote
+Quote Post

Reply to this topicStart new topic
2 User(s) are reading this topic (2 Guests and 0 Anonymous Users)
0 Members:

 



- Lo-Fi Version Support form
Copyrights and abuse reports form
Time is now: 19th August 2018 - 04:31:44