Welcome Guest ( Log In | Register )

> Releases Upload / Добавление релизов

Добавить релиз тут / Click here to add release
Рекомендованные обменники / Recommended file shares

> Bibeau - Bibeau (2018), Progressive Metal/Rock
post Mar 31 2018, 05:29:48
Post #1

Аннигилятор пивА
Group Icon
Group: V.I.P
Posts: 46,693
Releases: 14016
From: Koenigsberg - TILZIT
On Forums: 11 years 11 months
Thanks: 310917 time(s)
Russian Federation


(IMG:https://metalarea.org/images/audiocovers/2018_Mar/acov_tid304075_thumb.jpg)

*Artist: Bibeau
*Album: Bibeau
*Year: 2018
*Genre: Progressive Metal/Rock
*Country: United States (IMG:https://metalarea.org/forum/style_images/flags/United%20States.png)
*Format: mp3@CBR320kbps
*Size: 143MB

Tracklist:
01. Titanium White 06:31
02. A Brand New Shade 03:34
03. Gris Gris 01:32
04. Leeway 05:41
05. A Night Awake 06:51
06. Mark This 05:24
07. Indifference 04:05
08. The Phantom Of The Opera 06:54
09. End Of Us, End Of Time 04:34
10. Mother Of Pearl 06:42
11. The Color Blue 04:53
12. Play By Feel 10:09
******************************
Total playing time: 1:06:50

Extended info
В основе классика харднхэвви 80х смешанная с прогом
Drew Theiring - Vocals
Casey Boyd - Guitars
Robin Bibeau - Guitars
Chris Ray - Bass
David Sweat - Drums




Technical info
(IMG:https://metalarea.org/images/spectrogram/2018_Mar/d57ef1c27b18d1243a972119fb84da98.png)
Input File: 2 A Brand New Shade.mp3
Channels : 2
Sample Rate : 44100
Precision : 16-bit
Duration : 00:03:34.49 = 9458921 samples = 16086.6 CDDA sectors
File Size : 8.73M
Bit Rate : 326k
Sample Encoding: MPEG audio (layer I, II or III)
Comments :
Title=A Brand New Shade
Artist=Bibeau
Album=Bibeau
Tracknumber=2/12
Year=2018
Genre=17
Discnumber=1/1



Register


Вернуться к началу страницы
  Insert nick Quick quote
+Цитировать сообщение
 
Создать новую тему
Replies (1 - 7)
post Apr 1 2018, 04:54:51
Post #2

Groovy
****
Group: Металариец
Posts: 351
Releases: 53
From: Владимирская обл.
On Forums: 11 years 5 months
Thanks: 862 time(s)
Russian Federation


Неизвестный формат или ошибка в архиве. Перелейте пожалуйста.
Вернуться к началу страницы
  Insert nick Quick quote
+Цитировать сообщение
post Apr 1 2018, 06:11:08
Post #3

Аннигилятор пивА
Group Icon
Group: V.I.P
Posts: 46,693
Releases: 14016
From: Koenigsberg - TILZIT
On Forums: 11 years 11 months
Thanks: 310917 time(s)
Russian Federation


ЦИТАТА(Immolator @ Apr 1 2018, 03:54:51) *
Неизвестный формат или ошибка в архиве. Перелейте пожалуйста.

обнови архиватор, он у тебя древний (IMG:style_emoticons/default/bye.gif)
Вернуться к началу страницы
  Insert nick Quick quote
+Цитировать сообщение
post Apr 1 2018, 08:52:45
Post #4

hearer & reader
**************
Group: Металариец
Posts: 6,235
Releases: 81
From: Moscow
On Forums: 10 years 8 months
Thanks: 6373 time(s)
Russian Federation


http://www.bibeauband.com
Вернуться к началу страницы
  Insert nick Quick quote
+Цитировать сообщение
post Apr 3 2018, 17:25:49
Post #5

Четыре Литра
****
Group: Металариец
Posts: 378
Releases: 0
On Forums: 11 years 5 months
Thanks: 48 time(s)
Russian Federation


Очень приятно слушается.
Вернуться к началу страницы
  Insert nick Quick quote
+Цитировать сообщение
post Apr 3 2018, 18:28:03
Post #6

Аннигилятор пивА
Group Icon
Group: V.I.P
Posts: 46,693
Releases: 14016
From: Koenigsberg - TILZIT
On Forums: 11 years 11 months
Thanks: 310917 time(s)
Russian Federation


классно, фантом оперы в стиле железной девы (IMG:style_emoticons/default/crazy.gif)
Вернуться к началу страницы
  Insert nick Quick quote
+Цитировать сообщение
post Apr 3 2018, 22:05:55
Post #7

Восемь Литров
********
Group: Металариец
Posts: 883
Releases: 0
On Forums: 9 years 2 months
Thanks: 288 time(s)
Antarctica


Во блин, даже не думал услышать что-то интересное - стиль не мой, но неожиданно понравилась превьюха в посте выше. Заслушаем повнимательнее.
Вернуться к началу страницы
  Insert nick Quick quote
+Цитировать сообщение
post Apr 16 2018, 18:50:15
Post #8

21st Century Schizoid Man
**************
Group: Металариец
Posts: 5,101
Releases: 67
From: Moscow
On Forums: 10 years 3 weeks
Thanks: 4017 time(s)
Russian Federation


ЦИТАТА(aesteticvice @ Mar 31 2018, 07:29:48) *
В основе классика харднхэвви 80х смешанная с прогом

Мелодичный прогрессив-метал/рок с приятнейшими влияниями в том же жанре, которые я щас не вспомню. Классный альбом. (IMG:style_emoticons/default/20.gif)
Вернуться к началу страницы
  Insert nick Quick quote
+Цитировать сообщение

ОтветитьСоздать новую тему
1 User(s) are reading this topic (1 Guests and 0 Anonymous Users)
0 Members:

 



- Lo-Fi Version Support form
Copyrights and abuse reports form
Time is now: 27th May 2018 - 12:51:01