Welcome Guest ( Log In | Register )

> Snowsedim - Anthology Of Ebony (2018), Atmospheric Folk/Melodic Death Metal
post Apr 1 2018, 14:27:32
Post #1

Аннигилятор пивА
Group Icon
Group: V.I.P
Posts: 52,360
Releases: 16551
From: Koenigsberg - TILZIT
On Forums: 13 years 8 months
Thanks: 363869 time(s)
Russian Federation


(IMG:https://metalarea.org/images/audiocovers/2018_Apr/acov_tid304136_thumb.jpg)

*Artist: Snowsedim
*Album: Anthology Of Ebony
*Year: 2018
*Genre: Atmospheric Folk/Melodic Death Metal
*Country: China (IMG:https://metalarea.org/forum/style_images/flags/China.png)
*Format: mp3@CBR320kbps
*Size: 95MB

Tracklist:
1. 洪荒 04:36
2. 雪沉 04:58
3. 迷僧 03:58
4. 斜阳 03:54
5. 乌木 04:01
6. 无题 04:29
7. 京观·武军 08:29
8. 杀无赦 07:21
******************************
Total playing time: 41:46



Extended info
Chinese Folk Metal Band "Snowsedim"'s Debut Album 「Anthology of Ebony」 including a Song Feat. Shunzi (Vocals of Dream Spirit). Snowsedim was formed in July 2015, they play Chinese Folk Metal with the theme of Chinese traditonal culture and philosophy. They metaphorize themselves as an EBONY which contains cultural deposits of ancient sage.


Technical info
(IMG:https://metalarea.org/images/spectrogram/2018_Apr/c913c54aa7a7543be9024af0bc453094.png)
Input File: 03 - 迷僧.mp3
Channels : 2
Sample Rate : 44100
Precision : 16-bit
Duration : 00:03:58.39 = 10513087 samples = 17879.4 CDDA sectors
File Size : 9.56M
Bit Rate : 321k
Sample Encoding: MPEG audio (layer I, II or III)
Comments :
Title=иї·еѓ§
Artist=Snowsedim
Album=Anthology of Ebony
Tracknumber=3
Year=2018
Genre=Folk Metal



Register


Go to the top of the page
  Insert nick Quick quote
+Quote Post
 
Start new topic
Replies (1 - 5)
post Apr 2 2018, 01:32:36
Post #2

Аннигилятор пивА
Group Icon
Group: V.I.P
Posts: 52,360
Releases: 16551
From: Koenigsberg - TILZIT
On Forums: 13 years 8 months
Thanks: 363869 time(s)
Russian Federation


MIRROR
Register


Go to the top of the page
  Insert nick Quick quote
+Quote Post
post Apr 3 2018, 16:52:26
Post #3

Правь статус, ####!111
**************
Group: Металариец
Posts: 2,823
Releases: 8
From: Dnipro
On Forums: 11 years 6 months
Thanks: 893 time(s)
Ukraine


Китаезам срочно нужно запретить играть melodic death вперемешку с ихним "колоритным" фольком.
这个狗屎
Go to the top of the page
  Insert nick Quick quote
+Quote Post
post Apr 3 2018, 19:41:23
Post #4

Маньяк
**********
Group: Металариец
Posts: 1,234
Releases: 44
From: Moscow
On Forums: 13 years 6 months
Thanks: 1034 time(s)
Russian Federation


По превью вроде неплохо, такой китайский Eluveitie получился.. надо послушать..
upd: послушал. Хороший альбом, красивые мелодии. И да, мелодэта нет, да и не нужен здесь он.


Thanks:
(1) MeatWolf,
Go to the top of the page
  Insert nick Quick quote
+Quote Post
post Apr 3 2018, 21:26:06
Post #5

Мегаманьяк
***********
Group: Металариец
Posts: 1,671
Releases: 0
On Forums: 10 years 11 months
Thanks: 634 time(s)
Antarctica


ЦИТАТА(Paradayz @ 3rd April 2018 - 21:41:23) *
такой китайский Eluveitie получился

Что-то типа этого, но гораздо ярче и красивее, душевнее, грамотнее, интереснее, самобытнее. Великолепно. Музыка до отказа напичкана китайскими народными инструментами, которые музыканты используют с толком. Эта группа также ценна тем, что подобных пока не встречал. И даже гнусный вокал (коровый ор) не смог испортить впечатление, а вот чистый китайский очень даже ничего. Необычно так.


Thanks:
(1) Lucifer,
Go to the top of the page
  Insert nick Quick quote
+Quote Post
post Apr 9 2018, 08:05:57
Post #6

Правь статус, ####!111
**************
Group: Металариец
Posts: 2,388
Releases: 34
From: Nakhodka
On Forums: 9 years 7 months
Thanks: 2109 time(s)
Russian Federation


Прикольно.
Go to the top of the page
  Insert nick Quick quote
+Quote Post

Reply to this topicStart new topic
2 User(s) are reading this topic (2 Guests and 0 Anonymous Users)
0 Members:

 



- Lo-Fi Version Support form
Copyrights and abuse reports form
Time is now: 29th January 2020 - 16:07:21