Welcome Guest ( Log In | Register )

> Releases Upload / Добавление релизов

Добавить релиз тут / Click here to add release
Рекомендованные обменники / Recommended file shares

> Messa - Feast For Water (2018), Occult Doom Metal/Dark Jazz
post Apr 5 2018, 10:36:47
Post #1

Аннигилятор пивА
Group Icon
Group: V.I.P
Posts: 46,693
Releases: 14016
From: Koenigsberg - TILZIT
On Forums: 11 years 11 months
Thanks: 310917 time(s)
Russian Federation


(IMG:https://metalarea.org/images/audiocovers/2018_Apr/acov_tid304265_thumb.jpg)

*Artist: Messa
*Album: Feast For Water
*Year: 2018
*Genre: Occult Doom Metal/Dark Jazz
*Country: Italy (IMG:https://metalarea.org/forum/style_images/flags/Italy.png)
*Format: mp3@CBR320kbps
*Size: 115MB

Tracklist:
1. Naunet
2. Snakeskin Drape
3. Leah
4. The Seer
5. She Knows
6. Tulsi
7. White Stains
8. Da Tariki Tariquat
******************************
Total playing time: 49:29



Extended info
Messa play evoking doom metal with a dark jazz twist. Deliciously haunting female vocals, rhodes piano and 70’s fuzz guitars combine to conjure a sound that is all of their own. With influences as diverse as Windhand, Bohren Und Der Club Of Gore, The Devil’s Blood, Jex Thoth, Angelo Badalamenti, Bellwitch, Urfaust, John Coltrane and Aluk Todolo, the band has moved from the droning occult doom of their first LP ‘Belfry’ to a new, darker and more atmospheric approach clearly showcased in their new record ‘Feast for Water’, a concept album centered on the introspective, symbolic and ritual features of the liquid element.

Mistyr - Drums (Nox Interitus, Restos Humanos (live), Sterbenzeit)
Alberto - Guitars (lead) (Douge, Glincolti)
Mark Sade - Guitars, Bass (Sultan Bathery, The Sade)
Sara - Vocals (Restos Humanos)


Technical info
(IMG:https://metalarea.org/images/spectrogram/2018_Apr/d41ac3499fae97b699b89ca8a0cbfbd5.png)
Input File: 02 - Snakeskin Drape.mp3
Channels : 2
Sample Rate : 48000
Precision : 16-bit
Duration : 00:05:04.06 = 14594832 samples ~ 22804.4 CDDA sectors
File Size : 12.2M
Bit Rate : 320k
Sample Encoding: MPEG audio (layer I, II or III)
Comments :
Title=Snakeskin Drape
Artist=Messa
Album=Feast for Water
Tracknumber=2
Year=2018
Genre=Metal



Register


Вернуться к началу страницы
  Insert nick Quick quote
+Цитировать сообщение
 
Создать новую тему
Replies (1 - 2)
post Apr 5 2018, 13:37:08
Post #2

Аннигилятор пивА
Group Icon
Group: V.I.P
Posts: 46,693
Releases: 14016
From: Koenigsberg - TILZIT
On Forums: 11 years 11 months
Thanks: 310917 time(s)
Russian Federation


MIRROR
Register





Вернуться к началу страницы
  Insert nick Quick quote
+Цитировать сообщение
post Apr 17 2018, 10:09:09
Post #3

South Of Heaven /адепт ВУДУ
**************
Group: Металариец
Posts: 12,303
Releases: 7
From: Санкт-Петербург
On Forums: 8 years 1 month
Thanks: 4366 time(s)
Russian Federation


Женский вокал, второй полноформатник, слушабельно.
Вернуться к началу страницы
  Insert nick Quick quote
+Цитировать сообщение

ОтветитьСоздать новую тему
1 User(s) are reading this topic (1 Guests and 0 Anonymous Users)
0 Members:

 



- Lo-Fi Version Support form
Copyrights and abuse reports form
Time is now: 27th May 2018 - 12:39:23