Welcome Guest ( Log In | Register )

> Succorbenoth - Vibrant In Darkness (2018), Black Metal
post Apr 5 2018, 22:54:18
Post #1

Правь статус, ####!111
**************
Group: Металариец
Posts: 3,346
Releases: 676
From: Brazil
On Forums: 6 years 9 months
Thanks: 26622 time(s)
Brazil


(IMG:https://metalarea.org/images/audiocovers/2018_Apr/acov_tid304322_thumb.jpg)

*Artist: Succorbenoth
*Album: Vibrant In Darkness
*Year: 2018
*Genre: Black Metal
*Country: United States (IMG:https://metalarea.org/forum/style_images/flags/United%20States.png)
*Format: mp3@CBR320kbps
*Size: 130MB

Tracklist:
1. Blessed in Sin 07:04
2. In the Vast Nothingness of Space 06:44
3. Path of Grief 05:26
4. Silent Monolithic 05:38
5. Vibrant in Darkness 05:12
6. Tormented by Living 06:24
7. Hate Everything 06:24
8. This Flesh Forgotten 06:36
9. The Voices in Our Skin 06:28
******************************
Total playing time: 55:56



Extended info
Schattenkult Produktionen


Technical info
(IMG:https://metalarea.org/images/spectrogram/2018_Apr/d6ba4b395f021d9c1aaf46cf1b8782ff.png)
Input File: 03 Path Of Grief.mp3
Channels : 2
Sample Rate : 44100
Precision : 16-bit
Duration : 00:05:26.20 = 14385200 samples = 24464.6 CDDA sectors
File Size : 13.0M
Bit Rate : 320k
Sample Encoding: MPEG audio (layer I, II or III)
Comments :
Title=Path Of Grief
Artist=Succorbenoth
Album=Vibrant in Darkness
Tracknumber=3
Year=2018



Register


Go to the top of the page
  Insert nick Quick quote
+Quote Post
 
Start new topic
Replies (1 - 2)
post Apr 7 2018, 12:17:34
Post #2

Маньяк
**********
Group: Металариец
Posts: 1,074
Releases: 0
On Forums: 9 years 8 months
Thanks: 373 time(s)
Antarctica


Неплохо.
ЦИТАТА
Atmospheric Black Metal, with Influence from Dsbm/Post Black sub Genre
Go to the top of the page
  Insert nick Quick quote
+Quote Post
post Jul 12 2018, 09:37:10
Post #3

antithesis
**************
Group: Металариец
Posts: 2,392
Releases: 30
From: VRN
On Forums: 8 years 5 months
Thanks: 1285 time(s)
Russian Federation


прекрасно (IMG:style_emoticons/default/20.gif)
Go to the top of the page
  Insert nick Quick quote
+Quote Post

Reply to this topicStart new topic
1 User(s) are reading this topic (1 Guests and 0 Anonymous Users)
0 Members:

 



- Lo-Fi Version Support form
Copyrights and abuse reports form
Time is now: 15th November 2018 - 17:26:50