Welcome Guest ( Log In | Register )

> Releases Upload / Добавление релизов

Добавить релиз тут / Click here to add release
Рекомендованные обменники / Recommended file shares

> Ravenous Mob - Among The Mob (2018), Old School Thrash Metal
post Apr 7 2018, 14:39:08
Post #1

Правь статус, ####!111
**************
Group: Металариец
Posts: 12,978
Releases: 9229
From: Г.Харьков
On Forums: 6 years 1 week
Thanks: 150080 time(s)
Unknown


(IMG:https://metalarea.org/images/audiocovers/2018_Apr/acov_tid304381_thumb.jpg)

*Artist: Ravenous Mob
*Album: Among The Mob
*Year: 2018
*Genre: Old School Thrash Metal
*Country: Brazil (IMG:https://metalarea.org/forum/style_images/flags/Brazil.png)
*Format: mp3@CBR320kbps
*Size: 88MB

Tracklist:
01. Join the Mob 04:30
02. Killing Command 05:27
03. The Enemy Undying 04:16
04. Decaying Theories 03:44
05. Unholy Secrets 04:14
06. Brilliant Minds Forge Ways to Die 03:31
07. Slaughter Night 03:17
08. Black Magic Rites 04:56
09. Wrath of Cherokee 04:57
******************************
Total playing time: 38:52



Extended info
Michael Almeida - Vocals
Lucas Rodrigues - Guitar
Ewerton Melo - Guitar
Filipe Zimmermann - Drums


Technical info
(IMG:https://metalarea.org/images/spectrogram/2018_Apr/153f9b1139a42bc9d2867417edf8cb4f.png)
Input File: 02 - Killing Command.mp3
Channels : 2
Sample Rate : 44100
Precision : 16-bit
Duration : 00:05:27.21 = 14430005 samples = 24540.8 CDDA sectors
File Size : 13.1M
Bit Rate : 320k
Sample Encoding: MPEG audio (layer I, II or III)
Comments :
Title=Killing Command
Artist=Ravenous Mob
Album=Among the Mob
Tracknumber=2
Year=2018
Genre=Thrash Metal



Register


Вернуться к началу страницы
  Insert nick Quick quote
+Цитировать сообщение
 
Создать новую тему
Replies (1 - 3)
post Apr 8 2018, 03:28:51
Post #2

Правь статус, ####!111
**************
Group: Металариец
Posts: 12,978
Releases: 9229
From: Г.Харьков
On Forums: 6 years 1 week
Thanks: 150080 time(s)
Unknown


Register


Thanks:
Вернуться к началу страницы
  Insert nick Quick quote
+Цитировать сообщение
post Apr 8 2018, 09:09:03
Post #3

MDM-Thrash Metal
**************
Group: Металариец
Posts: 6,669
Releases: 410
From: Одесса
On Forums: 10 years 9 months
Thanks: 12724 time(s)
Ukraine


- All Songs!


Вернуться к началу страницы
  Insert nick Quick quote
+Цитировать сообщение
post Apr 16 2018, 01:49:26
Post #4

\m/
Group Icon
Group: S-moderation team
Posts: 7,394
Releases: 19
From: Петропавловск-Камчатский
On Forums: 8 years 11 months
Thanks: 6612 time(s)
Russian Federation


Напоминает Kreator пенсионного возраста, такой же сопливый недотрэш.
Вернуться к началу страницы
  Insert nick Quick quote
+Цитировать сообщение

ОтветитьСоздать новую тему
1 User(s) are reading this topic (1 Guests and 0 Anonymous Users)
0 Members:

 



- Lo-Fi Version Support form
Copyrights and abuse reports form
Time is now: 22nd May 2018 - 17:04:36