Welcome Guest ( Log In | Register )

> Правила / Rules

Тут только для чтения лежат низкобитрейтные (<192kbps) релизы, для которых есть аналоги в высокобитрейтных форумах.

Here goes (and stand in read only mode) low bitrate releases (<192kbps) which were already replaced by high bitrate releases in corresponding forums.

> Autokrator - Hammer Of The Heretics (2018), Death/Black Metal
post Apr 7 2018, 17:34:09
Post #1

Маньяк
**********
Group: Металариец
Posts: 1,009
Releases: 831
From: Одесса
On Forums: 9 years 10 months
Thanks: 6610 time(s)
Ukraine


(IMG:http://metalarea.org/images/audiocovers/2018_Apr/acov_tid304386_thumb.jpg)

*Artist: Autokrator
*Album: Hammer Of The Heretics
*Year: 2018
*Genre: Death/Black Metal
*Country: France (IMG:http://metalarea.org/forum/style_images/flags/France.png)
*Format: mp3@CBR128kbps (IMG:http://metalarea.org/images/bit_low.gif)
*Size: 32MB

Tracklist:
1. Against Flesh And Blood 06:09
2. Le Sang Impur 09:34
3. Interlude 03:12 instrumental
4. Hammer of the Heretics 08:31
5. Inquisitio-Denunciatio-Exceptio 06:39
******************************
Total playing time: 34:05



Extended info
Line - up:
LF - Guitars (N.K.V.D.)
DB - Vocals

Guest/Session:
Kévin Paradis - Drums (Agressor, Benighted, Death Lab, Mithridatic, The Arisen, Shining (live), ex-Dead Talking Mind, Gods of Hate, ex-DeadlySins, ex-Gorsed Noctis, ex-Svart Crown, ex-Deathawaits (live), ex-Melechesh (live), ex-Seth (live), ex-The Seven Gates)

(IMG:https://www.metal-archives.com/images/3/5/4/0/3540393385_photo.jpg?4734)


Technical info
(IMG:http://metalarea.org/images/spectrogram/2018_Apr/a2a1ba3e99842e43a6bc0aa56360431e.png)
Input File: 2. Le Sang Impur.mp3
Channels : 2
Sample Rate : 48000
Precision : 16-bit
Duration : 00:09:34.78 = 27589632 samples ~ 43108.8 CDDA sectors
File Size : 9.20M
Bit Rate : 128k
Sample Encoding: MPEG audio (layer I, II or III)
Comments :
Title=Le Sang Impur
Artist=Autokrator
Album=Hammer Of The Heretics
Tracknumber=2
Year=2018
Genre=Death / Black Metal



Register


Вернуться к началу страницы
  Insert nick Quick quote
+Цитировать сообщение
 
Создать новую тему
Replies (1 - 1)
post Apr 9 2018, 19:30:22
Post #2

Мегаманьяк
***********
Group: Металариец
Posts: 1,746
Releases: 0
From: Odessa
On Forums: 10 years 1 month
Thanks: 608 time(s)
Ukraine


Great 2018 release (IMG:style_emoticons/default/9.gif)
Вернуться к началу страницы
  Insert nick Quick quote
+Цитировать сообщение

Причина закрытия (DarkHorde 10-04-2018): Autokrator - Hammer Of The Heretics (2018)
Тема закрытаСоздать новую тему
2 User(s) are reading this topic (2 Guests and 0 Anonymous Users)
0 Members:

 



- Lo-Fi Version Support form
Copyrights and abuse reports form
Time is now: 24th April 2018 - 00:16:34