Welcome Guest ( Log In | Register )

> Releases Upload / Добавление релизов

Добавить релиз тут / Click here to add release
Рекомендованные обменники / Recommended file shares

> Gatteria - The Queen We Follow (2018), Groove/Thrash/Southern Metal
post Apr 8 2018, 21:43:56
Post #1

Семь Литров
*******
Group: Металариец
Posts: 783
Releases: 659
From: Новороссийск
On Forums: 7 years 3 weeks
Thanks: 11162 time(s)
Russian Federation


(IMG:https://metalarea.org/images/audiocovers/2018_Apr/acov_tid304425_thumb.jpg)

*Artist: Gatteria
*Album: The Queen We Follow
*Year: 2018
*Genre: Groove/Thrash/Southern Metal
*Country: Azerbaijan (IMG:https://metalarea.org/forum/style_images/flags/Azerbaijan.png)
*Format: mp3@CBR320kbps
*Size: 118MB

Tracklist:
01. The Queen We Follow 03:39
02. MFF 03:42
03. One Entity 03:45
04. Noir 04:46
05. Horrible Petite Bourgeous 03:29
06. Deathless 05:03
07. Six Bottle Club 05:46
08. Just Satisfying 03:26
09. Velvet Butterfly 06:33
10. Tired 05:02
11. Before I Die 06:24
******************************
Total playing time: 51:37



Extended info


Technical info
(IMG:https://metalarea.org/images/spectrogram/2018_Apr/eaa8b7d6f4b430f77b89563d18c5bc2e.png)
Input File: 01 The Queen We Follow.mp3
Channels : 2
Sample Rate : 44100
Precision : 16-bit
Duration : 00:03:39.09 = 9661693 samples = 16431.5 CDDA sectors
File Size : 8.76M
Bit Rate : 320k
Sample Encoding: MPEG audio (layer I, II or III)
Comments :
Title=The Queen We Follow
Artist=Gatteria
Album=The Queen We Follow
Tracknumber=01
Year=2018
Genre=Thrash Metal



Register


Вернуться к началу страницы
  Insert nick Quick quote
+Цитировать сообщение
 
Создать новую тему
Replies (1 - 2)
post Apr 9 2018, 23:46:39
Post #2

Восемь Литров
********
Group: Металариец
Posts: 859
Releases: 42
On Forums: 11 years 2 months
Thanks: 691 time(s)
Ukraine


А чё, прикольно))) (IMG:style_emoticons/default/20.gif)

Треша нет. (IMG:style_emoticons/default/23.gif)
Вернуться к началу страницы
  Insert nick Quick quote
+Цитировать сообщение
post Apr 15 2018, 12:52:00
Post #3

South Of Heaven /адепт ВУДУ
**************
Group: Металариец
Posts: 12,254
Releases: 7
From: Санкт-Петербург
On Forums: 8 years 1 month
Thanks: 4346 time(s)
Russian Federation


Толковый грув, даже меня пронял)

Надо Энжера в тему заманить для оценки, он же у нас непризнанный гений грува)
Вернуться к началу страницы
  Insert nick Quick quote
+Цитировать сообщение

ОтветитьСоздать новую тему
1 User(s) are reading this topic (1 Guests and 0 Anonymous Users)
0 Members:

 



- Lo-Fi Version Support form
Copyrights and abuse reports form
Time is now: 23rd May 2018 - 10:01:57