Welcome Guest ( Log In | Register )

> Weaponlord - Hail The Victorious (2018), Power Metal
post Apr 10 2018, 12:16:24
Post #1

Serial Uploader
Group Icon
Group: V.I.P
Posts: 33,070
Releases: 31355
From: Lithuania
On Forums: 10 years 3 months
Thanks: 358673 time(s)
Lithuania


(IMG:https://metalarea.org/images/audiocovers/2018_Apr/acov_tid304474_thumb.jpg)

*Artist: Weaponlord
*Album: Hail The Victorious
*Year: 2018
*Genre: Power Metal
*Country: United States (IMG:https://metalarea.org/forum/style_images/flags/United%20States.png)
*Format: mp3@CBR320kbps
*Size: 101MB

Tracklist:
01. Requiem... Dies Irae 02:58
02. Drawn And Quartered 04:34
03. Life Of Crime (Going Downtown) 04:44
04. March Of The Weaponlord 06:02
05. Mission 25 04:33
06. Witch Hunt 03:18
07. Hail The Victorious Dead 05:57
08. Dagon 04:44
09. Throne Room Masquerade 01:10
10. Whisper In Darkness 05:40
******************************
Total playing time: 43:40



(IMG:https://metalarea.org/images/youtube.png)

Technical info
(IMG:https://metalarea.org/images/spectrogram/2018_Apr/14ceb892203acab453d843a594d5b61f.png)
Input File: 02. Drawn and Quartered.mp3
Channels : 2
Sample Rate : 44100
Precision : 16-bit
Duration : 00:04:34.91 = 12123619 samples = 20618.4 CDDA sectors
File Size : 11.1M
Bit Rate : 323k
Sample Encoding: MPEG audio (layer I, II or III)
Comments :
Title=Drawn and Quartered
Artist=Weaponlord
Album=Hail the Victorious
Tracknumber=2/10
Year=2018



Register


Go to the top of the page
  Insert nick Quick quote
+Quote Post
 
Start new topic
Replies (1 - 5)
post Apr 11 2018, 18:27:44
Post #2

тебе 27, а ты все реверсами балуешься
**********
Group: Металариец
Posts: 1,384
Releases: 4
From: SPB
On Forums: 10 years 1 month
Thanks: 351 time(s)
Russian Federation


Классический американский павер, что мне весьма по душе (IMG:style_emoticons/default/20.gif)
Go to the top of the page
  Insert nick Quick quote
+Quote Post
post Apr 11 2018, 21:00:16
Post #3

MDM-Thrash Metal
**************
Group: Металариец
Posts: 7,074
Releases: 412
From: Одесса
On Forums: 11 years 1 month
Thanks: 13459 time(s)
Ukraine


Register


Go to the top of the page
  Insert nick Quick quote
+Quote Post
post Apr 21 2018, 09:42:55
Post #4

Перевозчик
**************
Group: Металариец
Posts: 2,757
Releases: 0
On Forums: 10 years 2 months
Thanks: 574 time(s)
Russian Federation


ЦИТАТА(Foneg @ Apr 11 2018, 20:27:44) *
Классический американский павер, что мне весьма по душе (IMG:style_emoticons/default/20.gif)


Учитывая тот факт, что 99% американского павера лютое и беспросветное говно (как и сабжевый релиз), очень странная любовь. (IMG:style_emoticons/default/13.gif)
Go to the top of the page
  Insert nick Quick quote
+Quote Post
post Apr 27 2018, 13:19:09
Post #5

тебе 27, а ты все реверсами балуешься
**********
Group: Металариец
Posts: 1,384
Releases: 4
From: SPB
On Forums: 10 years 1 month
Thanks: 351 time(s)
Russian Federation


ЦИТАТА(zauber1 @ Apr 21 2018, 11:42:55) *
Учитывая тот факт, что 99% американского павера лютое и беспросветное говно (как и сабжевый релиз), очень странная любовь. (IMG:style_emoticons/default/13.gif)


Щито поделать (IMG:style_emoticons/default/1488.gif)
Go to the top of the page
  Insert nick Quick quote
+Quote Post
post May 17 2018, 13:39:29
Post #6

South Of Heaven /адепт ВУДУ
**************
Group: Металариец
Posts: 12,887
Releases: 7
From: Санкт-Петербург
On Forums: 8 years 5 months
Thanks: 4704 time(s)
Russian Federation


ЦИТАТА(Foneg @ Apr 27 2018, 15:19:09) *
Щито поделать (IMG:style_emoticons/default/1488.gif)

Лечиться пиндосовским трэшем (IMG:style_emoticons/default/25.gif)
Go to the top of the page
  Insert nick Quick quote
+Quote Post

Reply to this topicStart new topic
2 User(s) are reading this topic (2 Guests and 0 Anonymous Users)
0 Members:

 



- Lo-Fi Version Support form
Copyrights and abuse reports form
Time is now: 24th September 2018 - 22:06:05