Welcome Guest ( Log In | Register )

> Funera Edo - Ars Alchemica (2017), Black Metal (D4)
post Apr 11 2018, 05:54:09
Post #1

Маньяк
**********
Group: Металариец
Posts: 1,167
Releases: 405
On Forums: 10 years 4 months
Thanks: 9168 time(s)
Italy


(IMG:http://metalarea.org/images/audiocovers/2018_Apr/acov_tid304494_thumb.jpg)

*Artist: Funera Edo
*Album: Ars Alchemica
*Year: 2017
*Genre: Black Metal
*Country: Italy (IMG:http://metalarea.org/forum/style_images/flags/Italy.png)
*Format: mp3@CBR320kbps
*Size: 105MB

Tracklist:
1. Vega 08:00
2. Mistica cosmica dell'assoluto 07:45
3. Contra 03:10
4. Catarsis 07:16
5. Ars alchemica 08:29
6. Per aspera ad astra 05:31
7. Ego sum deum meum 06:00
******************************
Total playing time: 46:11

(IMG:http://metalarea.org/images/youtube.png)

Technical info
(IMG:http://metalarea.org/images/spectrogram/2018_Apr/2861e17cb6cc5e98ca08a3790b9ed843.png)
Input File: 02. Mistica cosmica dell\'assoluto - - Senza Titolo1.mp3
Channels : 2
Sample Rate : 44100
Precision : 16-bit
Duration : 00:01:46.03 = 4675923 samples = 7952.25 CDDA sectors
File Size : 4.24M
Bit Rate : 320k
Sample Encoding: MPEG audio (layer I, II or III)



Register


Go to the top of the page
  Insert nick Quick quote
+Quote Post
 
Start new topic
Replies (1 - 4)
post Apr 12 2018, 14:57:40
Post #2

Маньяк
**********
Group: Металариец
Posts: 1,293
Releases: 1
From: Беларусь
On Forums: 13 years 3 months
Thanks: 545 time(s)
Russian Federation


Странно, что нету комментариев, ведь группа бомбическая!
Go to the top of the page
  Insert nick Quick quote
+Quote Post
post Sep 4 2020, 07:30:03
Post #3

Четыре Литра
****
Group: Металариец
Posts: 305
Releases: 0
From: Hellisipolis
On Forums: 12 years 2 months
Thanks: 34 time(s)
Antarctica


can someone re-up

for my alchemical class in Hogwarts
Go to the top of the page
  Insert nick Quick quote
+Quote Post
post Sep 4 2020, 14:01:28
Post #4

Group Icon
Group: S-moderation team
Posts: 20,266
Releases: 1441
From: Zagreb
On Forums: 10 years 1 month
Thanks: 92894 time(s)
Croatia


Register


Thanks:
Go to the top of the page
  Insert nick Quick quote
+Quote Post
post Sep 4 2020, 22:19:04
Post #5

Четыре Литра
****
Group: Металариец
Posts: 305
Releases: 0
From: Hellisipolis
On Forums: 12 years 2 months
Thanks: 34 time(s)
Antarctica


QUOTE(Borderline1991 @ Sep 4 2020, 17:01:28) *


Thank you Borderline1991


if you were near I'd offer a (IMG:style_emoticons/default/9.gif)


Thanks:
Go to the top of the page
  Insert nick Quick quote
+Quote Post

Reply to this topicStart new topic
2 User(s) are reading this topic (2 Guests and 0 Anonymous Users)
0 Members:

 



- Lo-Fi Version Support form
Copyrights and abuse reports form
Time is now: 14th April 2021 - 14:42:58