Welcome Guest ( Log In | Register )

> Releases Upload / Добавление релизов

Добавить релиз тут / Click here to add release
Рекомендованные обменники / Recommended file shares

> Built-In Obsolescence - Instar (2018), Progressive/Post-Metal
post Apr 11 2018, 16:13:33
Post #1

Serial Uploader
Group Icon
Group: V.I.P
Posts: 32,452
Releases: 30758
From: Lithuania
On Forums: 9 years 11 months
Thanks: 353341 time(s)
Lithuania


(IMG:https://metalarea.org/images/audiocovers/2018_Apr/acov_tid304518_thumb.jpg)

*Artist: Built-In Obsolescence
*Album: Instar
*Year: 2018
*Genre: Progressive/Post-Metal
*Country: Italy (IMG:https://metalarea.org/forum/style_images/flags/Italy.png)
*Format: mp3@CBR320kbps
*Size: 140MB

Tracklist:
01. Dance Of Falling Leaves
02. Sine Requie
03. The Wave
04. Ground Launch Sequencer
05. Project: Almaz
06. Watching The Wake
07. Shara
08. Lashes
09. Biotronic
10. AD 9878
11. Ecdysis
******************************
Total playing time: 1:01:01



Technical info
(IMG:https://metalarea.org/images/spectrogram/2018_Apr/8de3b6694fe9788408b55b78067d0de7.png)
Input File: 02. Sine Requie.mp3
Channels : 2
Sample Rate : 44100
Precision : 16-bit
Duration : 00:07:36.56 = 20134340 samples = 34242.1 CDDA sectors
File Size : 18.3M
Bit Rate : 321k
Sample Encoding: MPEG audio (layer I, II or III)
Comments :
Title=Sine Requie
Artist=Built-in Obsolescence
Album=Instar
Tracknumber=2/11
Year=2018
Genre=9
Discnumber=1/1



Register


Вернуться к началу страницы
  Insert nick Quick quote
+Цитировать сообщение
 
Создать новую тему
Replies (1 - 3)
post Apr 12 2018, 12:43:27
Post #2

MDM-Thrash Metal
**************
Group: Металариец
Posts: 6,670
Releases: 410
From: Одесса
On Forums: 10 years 9 months
Thanks: 12727 time(s)
Ukraine


Register
Вернуться к началу страницы
  Insert nick Quick quote
+Цитировать сообщение
post Apr 12 2018, 18:53:55
Post #3

21st Century Schizoid Man
**************
Group: Металариец
Posts: 5,078
Releases: 66
From: Moscow
On Forums: 10 years 2 weeks
Thanks: 4001 time(s)
Russian Federation


Судя по предыдущим опусам, ничего интересного.

Вернуться к началу страницы
  Insert nick Quick quote
+Цитировать сообщение
post Apr 18 2018, 01:19:13
Post #4

Правь статус, ####!111
**************
Group: Металариец
Posts: 2,361
Releases: 11
From: Canada
On Forums: 10 years 11 months
Thanks: 1477 time(s)
Canada


Вернуться к началу страницы
  Insert nick Quick quote
+Цитировать сообщение

ОтветитьСоздать новую тему
1 User(s) are reading this topic (1 Guests and 0 Anonymous Users)
0 Members:

 



- Lo-Fi Version Support form
Copyrights and abuse reports form
Time is now: 23rd May 2018 - 09:52:01