Welcome Guest ( Log In | Register )

> Emerald Sun - Under The Curse Of Silence (2018), Power Metal (D5)
post Apr 12 2018, 11:29:52
Post #1

Serial Uploader
Group Icon
Group: V.I.P
Posts: 36,427
Releases: 34613
From: Lithuania
On Forums: 11 years 5 months
Thanks: 404229 time(s)
Lithuania


(IMG:https://metalarea.org/images/audiocovers/2018_Apr/acov_tid304545_thumb.jpg)

*Artist: Emerald Sun
*Album: Under The Curse Of Silence
*Year: 2018
*Genre: Power Metal
*Country: Greece (IMG:https://metalarea.org/forum/style_images/flags/Greece.png)
*Format: mp3@CBR320kbps
*Size: 135MB

Tracklist:
01. Kill Or Be Killed
02. All As One
03. Carry On
04. Blast
05. Weakness And Shame
06. Journey Of Life
07. Rebel Soul
08. Land Of Light
09. Slaves To Addiction
10. Fame (Irene Cara Cover)
11. World On Fire
12. La Fuerza Del Ser (Spanish Version Of Journey Of Life)
******************************
Total playing time: 58:45

(IMG:https://metalarea.org/images/myspace.png)



Technical info
(IMG:https://metalarea.org/images/spectrogram/2018_Apr/cddfdd92e000f816295a236fa7abc828.png)
Input File: 02. All as One.mp3
Channels : 2
Sample Rate : 44100
Precision : 16-bit
Duration : 00:00:00.23 = 10275 samples = 17.4745 CDDA sectors
File Size : 9.52M
Bit Rate : 327M
Sample Encoding: MPEG audio (layer I, II or III)
Comments :
Title=All as One
Artist=Emerald Sun
Album=Under the Curse of Silence
Tracknumber=2/12
Year=2018-18-20
Genre=GetMetal.CLUB
Discnumber=1/1



Register


Go to the top of the page
  Insert nick Quick quote
+Quote Post
 
Start new topic
Replies (1 - 5)
post Apr 12 2018, 15:06:39
Post #2

Мегаманьяк
***********
Group: Металариец
Posts: 1,780
Releases: 0
On Forums: 7 years 1 week
Thanks: 2588 time(s)
Russian Federation


Альтернативная ссылка
Register


Thanks:
Go to the top of the page
  Insert nick Quick quote
+Quote Post
post Apr 12 2018, 16:33:23
Post #3

Шесть Литров
******
Group: Металариец
Posts: 674
Releases: 0
From: Sweden
On Forums: 10 years 8 months
Thanks: 17 time(s)
Sweden


Thank you.
Go to the top of the page
  Insert nick Quick quote
+Quote Post
post Apr 12 2018, 19:40:24
Post #4

Тридцать лет на борту "Тяжёлого" крейсера
**************
Group: Металариец
Posts: 2,121
Releases: 0
From: Питер
On Forums: 12 years 5 months
Thanks: 545 time(s)
Russian Federation


Был у них замечательный альбом 2011-го года, и по содержимому и по качеству реализации
Здесь же (как и на предыдущем диске) скорее материал какой-то начинающей команды - здорово сдали ребята
Go to the top of the page
  Insert nick Quick quote
+Quote Post
post Apr 15 2018, 20:30:19
Post #5

Old School Metal
**************
Group: Металариец
Posts: 2,645
Releases: 0
From: г. Минск
On Forums: 10 years 7 months
Thanks: 5918 time(s)
Belarus


Emerald Sun - Under The Curse Of Silence (2018, Fastball Music)


(IMG:http://i105.fastpic.ru/big/2018/0414/6d/dc3b9b50313bd2f8173c99c597e2f56d.jpg)


Lossless: FLAC (image+.cue+.log) + Covers


Register
Go to the top of the page
  Insert nick Quick quote
+Quote Post
post Apr 21 2018, 09:53:21
Post #6

Перевозчик
**************
Group: Металариец
Posts: 3,056
Releases: 0
On Forums: 11 years 4 months
Thanks: 670 time(s)
Russian Federation


Слабая и посредственная работа.
Go to the top of the page
  Insert nick Quick quote
+Quote Post

Reply to this topicStart new topic
2 User(s) are reading this topic (2 Guests and 0 Anonymous Users)
0 Members:

 



- Lo-Fi Version Support form
Copyrights and abuse reports form
Time is now: 13th November 2019 - 11:27:08