Welcome Guest ( Log In | Register )

> Releases Upload / Добавление релизов

Добавить релиз тут / Click here to add release
Рекомендованные обменники / Recommended file shares

> Divine Retribution - Misericordia (2018), Neo-Classical/Progressive Metal
post Apr 12 2018, 15:55:04
Post #1

Serial Uploader
Group Icon
Group: V.I.P
Posts: 32,537
Releases: 30839
From: Lithuania
On Forums: 9 years 11 months
Thanks: 354175 time(s)
Lithuania


(IMG:https://metalarea.org/images/audiocovers/2018_Apr/acov_tid304560_thumb.jpg)

*Artist: Divine Retribution
*Album: Misericordia
*Year: 2018
*Genre: Neo-Classical/Progressive Metal
*Country: United States (IMG:https://metalarea.org/forum/style_images/flags/United%20States.png)
*Format: mp3@CBR320kbps
*Size: 98MB

Tracklist:
01. Reckoning
02. The Witherings
03. Raze Hell
04. Guide Me
05. Not Your Kind
06. Cry
07. Crossroad
08. Divine Retribution
******************************
Total playing time: 6:12




Technical info
(IMG:https://metalarea.org/images/spectrogram/2018_Apr/58385751e94b1af67f5d6361bff1a4a8.png)
Input File: 02. The Witherings.mp3
Channels : 2
Sample Rate : 44100
Precision : 16-bit
Duration : 00:05:21.03 = 14157203 samples = 24076.9 CDDA sectors
File Size : 12.9M
Bit Rate : 322k
Sample Encoding: MPEG audio (layer I, II or III)
Comments :
Title=The Witherings
Artist=Divine Retribution
Album=Misericordia
Tracknumber=2/8
Year=2018
Genre=9
Discnumber=1/1



Register


Вернуться к началу страницы
  Insert nick Quick quote
+Цитировать сообщение
 
Создать новую тему
Replies (1 - 2)
post Apr 13 2018, 11:30:12
Post #2

hearer & reader
**************
Group: Металариец
Posts: 6,235
Releases: 81
From: Moscow
On Forums: 10 years 8 months
Thanks: 6373 time(s)
Russian Federation



С этой дамой на вокале им ловить нечего. Впрочем, и без неё - тоже.
Вернуться к началу страницы
  Insert nick Quick quote
+Цитировать сообщение
post Apr 15 2018, 20:36:08
Post #3

MDM-Thrash Metal
**************
Group: Металариец
Posts: 6,701
Releases: 410
From: Одесса
On Forums: 10 years 9 months
Thanks: 12762 time(s)
Ukraine


Register


https://www.youtube.com/watch?v=4dVPjAy8hD0 (DIVINE RETRIBUTION - Raze Hell)
Вернуться к началу страницы
  Insert nick Quick quote
+Цитировать сообщение

ОтветитьСоздать новую тему
1 User(s) are reading this topic (1 Guests and 0 Anonymous Users)
0 Members:

 



- Lo-Fi Version Support form
Copyrights and abuse reports form
Time is now: 27th May 2018 - 12:23:14