Welcome Guest ( Log In | Register )

> Møl - Jord (2018), Atmospheric Black/Post-Metal (D4)
post Apr 12 2018, 16:25:28
Post #1

Serial Uploader
Group Icon
Group: V.I.P
Posts: 33,278
Releases: 31556
From: Lithuania
On Forums: 10 years 5 months
Thanks: 360412 time(s)
Lithuania


(IMG:https://metalarea.org/images/audiocovers/2018_Apr/acov_tid304566_thumb.jpg)

*Artist: Møl
*Album: Jord
*Year: 2018
*Genre: Atmospheric Black/Post-Metal
*Country: Denmark (IMG:https://metalarea.org/forum/style_images/flags/Denmark.png)
*Format: mp3@CBR320kbps
*Size: 95MB

Tracklist:
01. Storm
02. Penumbra
03. Burma
04. Vakuum
05. Lambda
06. Ligament
07. Virga
08. Jord
******************************
Total playing time: 5:32




Technical info
(IMG:https://metalarea.org/images/spectrogram/2018_Apr/2a503b19b064815507f6d54ff658da32.png)
Input File: 02. Penumbra.mp3
Channels : 2
Sample Rate : 44100
Precision : 16-bit
Duration : 00:05:32.70 = 14672202 samples = 24952.7 CDDA sectors
File Size : 13.3M
Bit Rate : 321k
Sample Encoding: MPEG audio (layer I, II or III)
Comments :
Title=Penumbra
Artist=MГ?L
Album=Jord
Tracknumber=2/8
Year=2018
Genre=9
Discnumber=1/1



Register


Go to the top of the page
  Insert nick Quick quote
+Quote Post
 
Start new topic
Replies (1 - 3)
post Apr 14 2018, 08:31:15
Post #2

Lord of Muspelheim, Warmaster of fire giants
****
Group: Металариец
Posts: 372
Releases: 0
From: Muspelheim
On Forums: 11 years 11 months
Thanks: 14 time(s)
Faroe Islands


5й раз зависает "карея", thanks fuck!
Go to the top of the page
  Insert nick Quick quote
+Quote Post
post Apr 14 2018, 08:34:39
Post #3

Волк без яблока
**************
Group: Металариец
Posts: 13,125
Releases: 104
From: Санкт-Петербург
On Forums: 12 years 1 month
Thanks: 14745 time(s)
Russian Federation


Форма хорошая, содержания особого не обнаружил.
Go to the top of the page
  Insert nick Quick quote
+Quote Post
post Aug 10 2018, 13:54:58
Post #4

Два Литра
**
Group: Завсегдатай
Posts: 109
Releases: 0
On Forums: 10 years 10 months
Thanks: 18 time(s)
Russian Federation


Норм альбом, приятный
Go to the top of the page
  Insert nick Quick quote
+Quote Post

Reply to this topicStart new topic
2 User(s) are reading this topic (2 Guests and 0 Anonymous Users)
0 Members:

 



- Lo-Fi Version Support form
Copyrights and abuse reports form
Time is now: 14th November 2018 - 02:27:21