Welcome Guest ( Log In | Register )

> Commander - Fatalis (The Unbroken Circle) (2018), Death Metal (D10)
post Apr 12 2018, 16:44:49
Post #1

Serial Uploader
Group Icon
Group: V.I.P
Posts: 36,586
Releases: 34775
From: Lithuania
On Forums: 11 years 6 months
Thanks: 407155 time(s)
Lithuania


(IMG:https://metalarea.org/images/audiocovers/2018_Apr/acov_tid304572_thumb.jpg)

*Artist: Commander
*Album: Fatalis (The Unbroken Circle)
*Year: 2018
*Genre: Death Metal
*Country: Germany (IMG:https://metalarea.org/forum/style_images/flags/Germany.png)
*Format: mp3@CBR320kbps
*Size: 89MB

Tracklist:
01. Fatalis (The Unbroken Circle) 05:20
02. Locust Infestation 04:31
03. Chaos Awakening 03:52
04. New Slave Democracy 03:57
05. Insidious Greed 06:15
06. Invidia 03:37
07. Superbia 04:33
08. And Death Swings The Scythe 06:07
09. Shattered Existence 03:04
******************************
Total playing time: 41:16




Technical info
(IMG:https://metalarea.org/images/spectrogram/2018_Apr/73d1aafcbee055aeb2e1d118643f3871.png)
Input File: 2 Locust Infestation.mp3
Channels : 2
Sample Rate : 44100
Precision : 16-bit
Duration : 00:04:31.13 = 11956701 samples = 20334.5 CDDA sectors
File Size : 11.0M
Bit Rate : 326k
Sample Encoding: MPEG audio (layer I, II or III)
Comments :
Title=Locust Infestation
Artist=Commander
Album=Fatalis (The Unbroken Circle)
Tracknumber=2/9
Year=2018
Genre=9
Discnumber=1/1



Register


Go to the top of the page
  Insert nick Quick quote
+Quote Post
 
Start new topic
Replies (1 - 2)
post Apr 15 2018, 21:08:12
Post #2

MDM-Thrash Metal
**************
Group: Металариец
Posts: 9,117
Releases: 752
From: Одесса
On Forums: 12 years 3 months
Thanks: 20057 time(s)
Ukraine


Register


Кстати, а альбом то очень приличный! (IMG:style_emoticons/default/20.gif)


Thanks:
Go to the top of the page
  Insert nick Quick quote
+Quote Post
post Feb 27 2019, 21:50:52
Post #3

MDM-Thrash Metal
**************
Group: Металариец
Posts: 9,117
Releases: 752
From: Одесса
On Forums: 12 years 3 months
Thanks: 20057 time(s)
Ukraine


Register


Thanks:
Go to the top of the page
  Insert nick Quick quote
+Quote Post

Reply to this topicStart new topic
1 User(s) are reading this topic (1 Guests and 0 Anonymous Users)
0 Members:

 



- Lo-Fi Version Support form
Copyrights and abuse reports form
Time is now: 8th December 2019 - 19:24:44