Welcome Guest ( Log In | Register )

> Releases Upload / Добавление релизов

Добавить релиз тут / Click here to add release
Рекомендованные обменники / Recommended file shares

> Chronicler - Dawn Of A New Era [ep] (2018), Symphonic/Melodic Death Metal
post Apr 13 2018, 03:04:01
Post #1

Правь статус, ####!111
**************
Group: Металариец
Posts: 12,978
Releases: 9229
From: Г.Харьков
On Forums: 6 years 1 week
Thanks: 150080 time(s)
Unknown


(IMG:http://metalarea.org/images/audiocovers/2018_Apr/acov_tid304586_thumb.jpg)

*Artist: Chronicler
*Album: Dawn Of A New Era [ep]
*Year: 2018
*Genre: Symphonic/Melodic Death Metal
*Country: Finland (IMG:http://metalarea.org/forum/style_images/flags/Finland.png)
*Format: mp3@CBR320kbps
*Size: 89MB

Tracklist:
1. Deacons of Demise 06:45
2. In the Shadow of War 03:44
3. Fall from Grace 05:12
4. Trail of Fire 05:56
5. Revelation 04:14
6. Shackled 10:21
7. Dawn of a New Era 02:52
******************************
Total playing time: 39:04



Technical info
(IMG:http://metalarea.org/images/spectrogram/2018_Apr/0bd51a04a9bdf1796bec4f62cff62f09.png)
Input File: 03. Fall from Grace.mp3
Channels : 2
Sample Rate : 44100
Precision : 16-bit
Duration : 00:05:13.08 = 13806960 samples = 23481.2 CDDA sectors
File Size : 12.5M
Bit Rate : 320k
Sample Encoding: MPEG audio (layer I, II or III)
Comments :
Title=Fall from Grace
Artist=Chronicler
Album=Dawn of a New Era
Tracknumber=3
Year=2018



Register


Вернуться к началу страницы
  Insert nick Quick quote
+Цитировать сообщение
 
Создать новую тему
Replies (1 - 4)
post Apr 13 2018, 04:07:10
Post #2

Правь статус, ####!111
**************
Group: Металариец
Posts: 12,978
Releases: 9229
From: Г.Харьков
On Forums: 6 years 1 week
Thanks: 150080 time(s)
Unknown


Register


Вернуться к началу страницы
  Insert nick Quick quote
+Цитировать сообщение
post Apr 13 2018, 11:51:40
Post #3

Девять Литров
*********
Group: Металариец
Posts: 989
Releases: 0
From: Dnipro
On Forums: 9 years 10 months
Thanks: 251 time(s)
Ukraine


Eternal Tears of Sorrow cloned


Thanks:
(1) Kwaad,
Вернуться к началу страницы
  Insert nick Quick quote
+Цитировать сообщение
post Apr 13 2018, 23:21:47
Post #4

Leegte
**********
Group: Металариец
Posts: 1,397
Releases: 14
From: Kiovia
On Forums: 6 years 1 month
Thanks: 1983 time(s)
Ukraine


QUOTE(isvili @ Apr 13 2018, 13:51:40) *
Eternal Tears of Sorrow cloned


Если так, то (IMG:style_emoticons/default/pray.gif)
Вернуться к началу страницы
  Insert nick Quick quote
+Цитировать сообщение
post Apr 15 2018, 19:12:26
Post #5

MDM-Thrash Metal
**************
Group: Металариец
Posts: 6,669
Releases: 410
From: Одесса
On Forums: 10 years 9 months
Thanks: 12724 time(s)
Ukraine


...Клавиш уж слишком много.
Вернуться к началу страницы
  Insert nick Quick quote
+Цитировать сообщение

ОтветитьСоздать новую тему
1 User(s) are reading this topic (1 Guests and 0 Anonymous Users)
0 Members:

 



- Lo-Fi Version Support form
Copyrights and abuse reports form
Time is now: 22nd May 2018 - 16:59:37