Welcome Guest ( Log In | Register )

> Releases Upload / Добавление релизов

Добавить релиз тут / Click here to add release
Рекомендованные обменники / Recommended file shares

> Endarken - Tvoj Je Hram U Srcu Mom (2018), Black Metal
post Apr 13 2018, 07:30:16
Post #1

Аннигилятор пивА
Group Icon
Group: V.I.P
Posts: 46,651
Releases: 14002
From: Koenigsberg - TILZIT
On Forums: 11 years 10 months
Thanks: 310154 time(s)
Russian Federation


(IMG:https://metalarea.org/images/audiocovers/2018_Apr/acov_tid304589_thumb.jpg)

*Artist: Endarken
*Album: Tvoj Je Hram U Srcu Mom
*Year: 2018
*Genre: Black Metal
*Country: Serbia (IMG:https://metalarea.org/forum/style_images/flags/Serbia.png)
*Format: mp3@VBR271kbps
*Size: 70MB

Tracklist:
1. Šta Vrede Oči Kada Um Je Slep 05:48
2. Tvoj Je Hram U Srcu Mom 06:57
3. Alfa I Omega 05:10
4. Oda Njemu 06:43
5. The Old Ones Awakening 05:12
6. Ja, Sve i Svja 06:03
******************************
Total playing time: 35:53




Extended info
Nekrst | strings & vocals
N.P.V. | drums
Dušan Kljajić | guitar solos


Technical info
(IMG:https://metalarea.org/images/spectrogram/2018_Apr/ddf417eba15f192f8a0d780d673c82bd.png)
Input File: 02. Tvoj Je Hram U Srcu Mom.mp3
Channels : 2
Sample Rate : 48000
Precision : 16-bit
Duration : 00:06:57.58 = 20043648 samples ~ 31318.2 CDDA sectors
File Size : 13.9M
Bit Rate : 266k
Sample Encoding: MPEG audio (layer I, II or III)
Comments :
Title=Tvoj Je Hram U Srcu Mom
Artist=Endarken
Album=Tvoj Je Hram U Srcu Mom
Tracknumber=02
Year=2018
Genre=Black Metal



Register


Вернуться к началу страницы
  Insert nick Quick quote
+Цитировать сообщение
 
Создать новую тему
Replies (1 - 3)
post Apr 13 2018, 16:03:20
Post #2

Аннигилятор пивА
Group Icon
Group: V.I.P
Posts: 46,651
Releases: 14002
From: Koenigsberg - TILZIT
On Forums: 11 years 10 months
Thanks: 310154 time(s)
Russian Federation


MIRROR
Register


Вернуться к началу страницы
  Insert nick Quick quote
+Цитировать сообщение
post Apr 14 2018, 13:12:55
Post #3

Маньяк
**********
Group: Металариец
Posts: 1,215
Releases: 933
From: Prešov
On Forums: 4 years 2 weeks
Thanks: 21443 time(s)
Slovakia


320 Kbps @ya.disk
Register


Вернуться к началу страницы
  Insert nick Quick quote
+Цитировать сообщение
post Apr 16 2018, 11:05:15
Post #4

Два Литра
**
Group: Завсегдатай
Posts: 170
Releases: 0
From: APATIN, SERBIA, АПАТИН, СЕРБИЯ
On Forums: 10 years 6 months
Thanks: 194 time(s)



Black Metal project from my town, Apatin, Serbia, including the members of Samrt and HSF
Вернуться к началу страницы
  Insert nick Quick quote
+Цитировать сообщение

ОтветитьСоздать новую тему
2 User(s) are reading this topic (2 Guests and 0 Anonymous Users)
0 Members:

 



- Lo-Fi Version Support form
Copyrights and abuse reports form
Time is now: 26th April 2018 - 05:05:49