Welcome Guest ( Log In | Register )

> Endarken - Tvoj Je Hram U Srcu Mom (2018), Black Metal
post Apr 13 2018, 07:30:16
Post #1

Аннигилятор пивА
Group Icon
Group: V.I.P
Posts: 48,076
Releases: 14582
From: Koenigsberg - TILZIT
On Forums: 12 years 2 months
Thanks: 321089 time(s)
Russian Federation


(IMG:https://metalarea.org/images/audiocovers/2018_Apr/acov_tid304589_thumb.jpg)

*Artist: Endarken
*Album: Tvoj Je Hram U Srcu Mom
*Year: 2018
*Genre: Black Metal
*Country: Serbia (IMG:https://metalarea.org/forum/style_images/flags/Serbia.png)
*Format: mp3@VBR271kbps
*Size: 70MB

Tracklist:
1. Šta Vrede Oči Kada Um Je Slep 05:48
2. Tvoj Je Hram U Srcu Mom 06:57
3. Alfa I Omega 05:10
4. Oda Njemu 06:43
5. The Old Ones Awakening 05:12
6. Ja, Sve i Svja 06:03
******************************
Total playing time: 35:53




Extended info
Nekrst | strings & vocals
N.P.V. | drums
Dušan Kljajić | guitar solos


Technical info
(IMG:https://metalarea.org/images/spectrogram/2018_Apr/ddf417eba15f192f8a0d780d673c82bd.png)
Input File: 02. Tvoj Je Hram U Srcu Mom.mp3
Channels : 2
Sample Rate : 48000
Precision : 16-bit
Duration : 00:06:57.58 = 20043648 samples ~ 31318.2 CDDA sectors
File Size : 13.9M
Bit Rate : 266k
Sample Encoding: MPEG audio (layer I, II or III)
Comments :
Title=Tvoj Je Hram U Srcu Mom
Artist=Endarken
Album=Tvoj Je Hram U Srcu Mom
Tracknumber=02
Year=2018
Genre=Black Metal



Register


Go to the top of the page
  Insert nick Quick quote
+Quote Post
 
Start new topic
Replies (1 - 3)
post Apr 13 2018, 16:03:20
Post #2

Аннигилятор пивА
Group Icon
Group: V.I.P
Posts: 48,076
Releases: 14582
From: Koenigsberg - TILZIT
On Forums: 12 years 2 months
Thanks: 321089 time(s)
Russian Federation


MIRROR
Register


Go to the top of the page
  Insert nick Quick quote
+Quote Post
post Apr 14 2018, 13:12:55
Post #3

Маньяк
**********
Group: Металариец
Posts: 1,349
Releases: 1048
From: Prešov
On Forums: 4 years 4 months
Thanks: 24121 time(s)
Slovakia


320 Kbps @ya.disk
Register


Go to the top of the page
  Insert nick Quick quote
+Quote Post
post Apr 16 2018, 11:05:15
Post #4

Два Литра
**
Group: Завсегдатай
Posts: 186
Releases: 0
From: APATIN, SERBIA, АПАТИН, СЕРБИЯ
On Forums: 10 years 9 months
Thanks: 226 time(s)



Black Metal project from my town, Apatin, Serbia, including the members of Samrt and HSF
Go to the top of the page
  Insert nick Quick quote
+Quote Post

Reply to this topicStart new topic
2 User(s) are reading this topic (2 Guests and 0 Anonymous Users)
0 Members:

 



- Lo-Fi Version Support form
Copyrights and abuse reports form
Time is now: 19th August 2018 - 04:31:58