Welcome Guest ( Log In | Register )

> Releases Upload / Добавление релизов

Добавить релиз тут / Click here to add release
Рекомендованные обменники / Recommended file shares

> Æþelruna - Ealdgesegena (2018), Epic Pagan/Black Metal (D4)
post Apr 13 2018, 07:50:48
Post #1

Аннигилятор пивА
Group Icon
Group: V.I.P
Posts: 46,692
Releases: 14016
From: Koenigsberg - TILZIT
On Forums: 11 years 11 months
Thanks: 310862 time(s)
Russian Federation


(IMG:https://metalarea.org/images/audiocovers/2018_Apr/acov_tid304591_thumb.jpg)

*Artist: Æþelruna
*Album: Ealdgesegena
*Year: 2018
*Genre: Epic Pagan/Black Metal
*Country: United Kingdom (IMG:https://metalarea.org/forum/style_images/flags/United%20Kingdom.png)
*Format: mp3@CBR320kbps
*Size: 97MB

Tracklist:
1. Paganland (Hoyland Cover)
2. Þæt Ðe Hwilum Wæs (Burzum Cover)
3. Lindisfarena; Anno Domini DCCXCIII
4. Mid An Fot On Fanfæt Gefylled Þæt Treow Wæs
5. On Modranihte
6. Þunor Weoha Þisne Ealh
7. Modor Eorðe Fæder Þunor (Bathory Cover)
******************************
Total playing time: 41:42



Technical info
(IMG:https://metalarea.org/images/spectrogram/2018_Apr/9451d565ad9d102bf5988d13e615348d.png)
Input File: 05 - On Modranihte.mp3
Channels : 2
Sample Rate : 44100
Precision : 16-bit
Duration : 00:05:52.04 = 15524788 samples = 26402.7 CDDA sectors
File Size : 14.1M
Bit Rate : 321k
Sample Encoding: MPEG audio (layer I, II or III)
Comments :
Title=On Modranihte
Artist=Æþelruna
Album=Ealdgesegena
Year=2018
Genre=Pagan Black Metal



Register


Вернуться к началу страницы
  Insert nick Quick quote
+Цитировать сообщение
 
Создать новую тему
Replies (1 - 3)
post Apr 13 2018, 16:05:28
Post #2

Аннигилятор пивА
Group Icon
Group: V.I.P
Posts: 46,692
Releases: 14016
From: Koenigsberg - TILZIT
On Forums: 11 years 11 months
Thanks: 310862 time(s)
Russian Federation


MIRROR
Register


Вернуться к началу страницы
  Insert nick Quick quote
+Цитировать сообщение
post Apr 14 2018, 19:41:16
Post #3

Маньяк
**********
Group: Металариец
Posts: 1,479
Releases: 23
From: Spain
On Forums: 10 years 8 months
Thanks: 1114 time(s)
Spain


QUOTE


Thanks:
Вернуться к началу страницы
  Insert nick Quick quote
+Цитировать сообщение
post Apr 15 2018, 15:11:57
Post #4

Девять Литров
*********
Group: Металариец
Posts: 989
Releases: 0
From: Dnipro
On Forums: 9 years 10 months
Thanks: 251 time(s)
Ukraine


Compilation
Вернуться к началу страницы
  Insert nick Quick quote
+Цитировать сообщение

ОтветитьСоздать новую тему
1 User(s) are reading this topic (1 Guests and 0 Anonymous Users)
0 Members:

 



- Lo-Fi Version Support form
Copyrights and abuse reports form
Time is now: 22nd May 2018 - 17:01:49