Welcome Guest ( Log In | Register )

> Releases Upload / Добавление релизов

Добавить релиз тут / Click here to add release
Рекомендованные обменники / Recommended file shares

> NimphaioN - Quoth The Raven (2018), Sympho Black Metal (D)
post Apr 13 2018, 13:35:11
Post #1

Семь Литров
*******
Group: Металариец
Posts: 783
Releases: 659
From: Новороссийск
On Forums: 7 years 3 weeks
Thanks: 11162 time(s)
Russian Federation


(IMG:https://metalarea.org/images/audiocovers/2018_Apr/acov_tid304602_thumb.jpg)

*Artist: NimphaioN
*Album: Quoth The Raven
*Year: 2018
*Genre: Sympho Black Metal
*Country: Russian Federation (IMG:https://metalarea.org/forum/style_images/flags/Russian%20Federation.png)
*Format: mp3@CBR320kbps
*Size: 123MB

Tracklist:
01. Welcome To The House Of Usher 02:22
02. The Conqueror Worm 04:42
03. Lenore 06:15
04. Valley Of Unrest 06:36
05. Raven 12:32
06. The Sleeper 06:48
07. Spirits Of The Dead 04:48
08. Annabel Lee 06:29
09. A Dream Within A Dream 03:08
******************************
Total playing time: 53:43


Preview 2

Technical info
(IMG:https://metalarea.org/images/spectrogram/2018_Apr/3917667d57ce6339059884ccc0bcdf7b.png)
Input File: 02. The Conqueror Worm.mp3
Channels : 2
Sample Rate : 44100
Precision : 16-bit
Duration : 00:04:43.09 = 12484357 samples = 21231.9 CDDA sectors
File Size : 11.3M
Bit Rate : 320k
Sample Encoding: MPEG audio (layer I, II or III)
Comments :
Title=The Conqueror Worm
Artist=NimphaioN
Album=Quoth The Raven
Tracknumber=02
Year=2018
Genre=Black Metal



Register


Вернуться к началу страницы
  Insert nick Quick quote
+Цитировать сообщение
 
Создать новую тему
Replies (1 - 1)
post Apr 15 2018, 10:54:17
Post #2

Necromancer
Group Icon
Group: Curation team
Posts: 10,671
Releases: 271
From: Зеленоград
On Forums: 11 years 7 months
Thanks: 8576 time(s)
Russian Federation


Подёрнутая вуалью паутины и истинной готической атмосферы XIX-го века, музыка коллектива написана на этом альбоме полностью на оригинальные стихи великого американского поэта Эдгара Аллана По (1809-1849), яркого представителя декадентского романтизма в литературе.

Атмосфера мрака, отчаяния, потерянной любви и красоты запустения прекрасно передана на "Quoth the Raven", воистину получившимся настоящим реквиемом поэту. Группа подошла к передаче глубоко душевных задумок По с максимальной композиторской и вокальной скрупулёзностью, так что это музыкальное полотно должно прийти по вкусу и ценителям красивого мелодичного блэк-метала и любителям тёмной поэзии.

Вернуться к началу страницы
  Insert nick Quick quote
+Цитировать сообщение

ОтветитьСоздать новую тему
1 User(s) are reading this topic (1 Guests and 0 Anonymous Users)
0 Members:

 



- Lo-Fi Version Support form
Copyrights and abuse reports form
Time is now: 23rd May 2018 - 09:42:49