Welcome Guest ( Log In | Register )

> Dawn Ahead - A Trip Of Violence [ep] (2018), Thrash/Heavy Metal
post Apr 13 2018, 19:58:56
Post #1

Правь статус, ####!111
**************
Group: Металариец
Posts: 14,307
Releases: 9914
From: Г.Харьков
On Forums: 6 years 4 months
Thanks: 162723 time(s)
Unknown


(IMG:http://metalarea.org/images/audiocovers/2018_Apr/acov_tid304627_thumb.jpg)

*Artist: Dawn Ahead
*Album: A Trip Of Violence [ep]
*Year: 2018
*Genre: Thrash/Heavy Metal
*Country: Germany (IMG:http://metalarea.org/forum/style_images/flags/Germany.png)
*Format: mp3@CBR320kbps
*Size: 52MB

Tracklist:
01. Sinister Thoughts 4:03
02. A Trip Into The Dark 4:57
03. A Taste Of Violence 4:38
04. The Betrayal 6:36
05. The One And Only 4:32
******************************
Total playing time: 24:46

Preview 1


Extended info
Chrischaan - Vocals
Pocho - Bass
Thomas - Guitar
Marcel - Guitar
Jan - Drums


Technical info
(IMG:http://metalarea.org/images/spectrogram/2018_Apr/40b6df10e22651cd82378baf2f35bf76.png)
Input File: 02 - A Trip Into The Dark.mp3
Channels : 2
Sample Rate : 44100
Precision : 16-bit
Duration : 00:04:56.86 = 13091526 samples = 22264.5 CDDA sectors
File Size : 11.9M
Bit Rate : 320k
Sample Encoding: MPEG audio (layer I, II or III)
Comments :
Title=A Trip Into The Dark
Artist=Dawn Ahead
Album=A Trip Of Violence
Tracknumber=2/5
Year=2018
Genre=9



Register


Go to the top of the page
  Insert nick Quick quote
+Quote Post
 
Start new topic
Replies (1 - 1)
post Apr 15 2018, 21:55:49
Post #2

MDM-Thrash Metal
**************
Group: Металариец
Posts: 7,061
Releases: 412
From: Одесса
On Forums: 11 years 1 month
Thanks: 13450 time(s)
Ukraine


Register


Thanks:
(1) postal67,
Go to the top of the page
  Insert nick Quick quote
+Quote Post

Reply to this topicStart new topic
1 User(s) are reading this topic (1 Guests and 0 Anonymous Users)
0 Members:

 



- Lo-Fi Version Support form
Copyrights and abuse reports form
Time is now: 23rd September 2018 - 05:14:28