Welcome Guest ( Log In | Register )

> Pathogen - Ashes Of Eternity (2017), Old School Death Metal (D)
post Apr 13 2018, 20:26:28
Post #1

Правь статус, ####!111
**************
Group: Металариец
Posts: 17,745
Releases: 12032
From: Г.Харьков
On Forums: 7 years 2 months
Thanks: 201956 time(s)
Unknown


(IMG:http://metalarea.org/images/audiocovers/2018_Apr/acov_tid304628_thumb.jpg)

*Artist: Pathogen
*Album: Ashes Of Eternity
*Year: 2017
*Genre: Old School Death Metal
*Country: Philippines (IMG:http://metalarea.org/forum/style_images/flags/Philippines.png)
*Format: mp3@VBR243kbps
*Size: 80MB

Tracklist:
1. Cinis Aeturnus (Intro) 01:28 instrumental
2. Apocryphal Visions 04:54
3. Burning in Abysmal Ruins 05:18
4. Deathvomit 04:07
5. A Graven Frost 07:44
6. Into the Endless Grey 06:09
7. Genetic Threat 04:55
8. Necrolatric Sorcery 04:16
9. Crematorial Destiny 06:54
******************************
Total playing time: 45:45




Extended info
Scene CD-Rip
Willie Desamero Vocals, Guitars
Vic Jarlego Drums
Nino Jerome Aranza Bass
Jervish Alcos Guitars


Technical info
(IMG:http://metalarea.org/images/spectrogram/2018_Apr/c1dce6d39dd746ff1bc5cbfbef3c2023.png)
Input File: 04-pathogen-deathvomit.mp3
Channels : 2
Sample Rate : 44100
Precision : 16-bit
Duration : 00:04:07.64 = 10920924 samples = 18573 CDDA sectors
File Size : 7.89M
Bit Rate : 255k
Sample Encoding: MPEG audio (layer I, II or III)
Comments :
Title=Deathvomit
Artist=Pathogen
Album=Ashes of Eternity
Tracknumber=4/9
Year=2017-00-00
Genre=Death Metal



Register


Go to the top of the page
  Insert nick Quick quote
+Quote Post
 
Start new topic
Replies (1 - 3)
post Apr 14 2018, 21:58:07
Post #2

Сталин придёт за тобой...
***********
Group: Металариец
Posts: 1,645
Releases: 0
From: Беларусь, Минск
On Forums: 12 years 1 week
Thanks: 777 time(s)
Belarus


Отличная группа, все альбомы.
Go to the top of the page
  Insert nick Quick quote
+Quote Post
post Jun 12 2019, 16:25:58
Post #3

Три Литра
***
Group: Завсегдатай
Posts: 243
Releases: 2
From: Екатеринбург
On Forums: 9 years 7 months
Thanks: 87 time(s)
Russian Federation


lossless please
Go to the top of the page
  Insert nick Quick quote
+Quote Post
post Jun 22 2019, 20:29:59
Post #4

Правь статус, ####!111
**************
Group: Металариец
Posts: 6,489
Releases: 164
From: URUGUAY
On Forums: 12 years 9 months
Thanks: 16425 time(s)
Uruguay


320
Register
Go to the top of the page
  Insert nick Quick quote
+Quote Post

Reply to this topicStart new topic
1 User(s) are reading this topic (1 Guests and 0 Anonymous Users)
0 Members:

 



- Lo-Fi Version Support form
Copyrights and abuse reports form
Time is now: 16th July 2019 - 03:32:43