Welcome Guest ( Log In | Register )

> TesseracT - Sonder (2018), Atmospheric Progressive Metal (D9)
post Apr 13 2018, 20:52:49
Post #1

Аннигилятор пивА
Group Icon
Group: V.I.P
Posts: 52,354
Releases: 16558
From: Koenigsberg - TILZIT
On Forums: 12 years 9 months
Thanks: 359756 time(s)
Russian Federation


(IMG:https://metalarea.org/images/audiocovers/2018_Apr/acov_tid304630_thumb.jpg)

*Artist: TesseracT
*Album: Sonder
*Year: 2018
*Genre: Atmospheric Progressive Metal
*Country: United Kingdom (IMG:https://metalarea.org/forum/style_images/flags/United%20Kingdom.png)
*Format: mp3@CBR320kbps
*Size: 80MB

Tracklist:
1. Luminary
2. King
3. Orbital
4. Juno
5. Beneath My Skin
6. Mirror Image
7. Smile
8. The Arrow (Bonus Track)
******************************
Total playing time: 36:24



Extended info
Acle Kahney - Guitar
James Monteith - Guitar
Jay Postones - Drums
Daniel Tompkins - Vocals
Amos Williams - Bass




Technical info
(IMG:https://metalarea.org/images/spectrogram/2018_Apr/380a2af78b1d33a693e971ffc90c0a0f.png)
Input File: 1-Luminary.mp3
Channels : 2
Sample Rate : 44100
Precision : 16-bit
Duration : 00:03:13.09 = 8515357 samples = 14481.9 CDDA sectors
File Size : 7.74M
Bit Rate : 321k
Sample Encoding: MPEG audio (layer I, II or III)
Comments :
Title=Luminary
Artist=Tesseract
Album=Sonder
Tracknumber=1
Year=2018
Genre=Progressive Metal



Register


Go to the top of the page
  Insert nick Quick quote
+Quote Post
2 Pages V  < 1 2  
Start new topic
Replies (30 - 31)
post Mar 15 2019, 16:07:43
Post #31

Маньяк
**********
Group: Металариец
Posts: 1,217
Releases: 0
On Forums: 10 years 3 weeks
Thanks: 416 time(s)
Antarctica


По большому счёту, TesseracT - это дебютная ЕПка. Даже остальные темы на альбоме "One", в который она включена, уже не так хороши.
Go to the top of the page
  Insert nick Quick quote
+Quote Post
post Mar 15 2019, 21:21:30
Post #32

Правь статус, ####!111
**************
Group: Металариец
Posts: 3,448
Releases: 9
From: Москва и МО
On Forums: 12 years 8 months
Thanks: 857 time(s)
Russian Federation


QUOTE(Deze @ Mar 16 2019, 00:17:57) *
Я не являюсь хейтером Тессеракта (хотя и отношусь к тем, кто их не понимает), но вот это:
извините, лол. Из серии "На Башорг, срочно!".


Не выдумывайте, в моем посте нет точки перед запятой!

Ну а вообще, вот такая мысль пришла в ходе первых пяти прослушек. В этом и гениальность музыкантов, чтобы создавать не стену звука, а четко отточенный материал, направленно резонирующий со слушателем. Какие-то группы до этого доходят, а какие-то нет. А кому, что нравится, - уже на любителя.
Go to the top of the page
  Insert nick Quick quote
+Quote Post

2 Pages V  < 1 2
Reply to this topicStart new topic
1 User(s) are reading this topic (1 Guests and 0 Anonymous Users)
0 Members:

 



- Lo-Fi Version Support form
Copyrights and abuse reports form
Time is now: 23rd March 2019 - 04:17:20