Welcome Guest ( Log In | Register )

> Malphas - Siege The Citadel (2018), Melodic Black Metal (D13)
post Apr 14 2018, 07:37:13
Post #1

Правь статус, ####!616
**************
Group: Металариец
Posts: 4,398
Releases: 3004
From: 55°35’N 38°08’E
On Forums: 10 years 1 month
Thanks: 56385 time(s)
Unknown


(IMG:http://metalarea.org/images/audiocovers/2018_Apr/acov_tid304641_thumb.jpg)

*Artist: Malphas
*Album: Siege The Citadel
*Year: 2018
*Genre: Melodic Black Metal
*Country: United States (IMG:http://metalarea.org/forum/style_images/flags/United%20States.png)
*Format: mp3@CBR320kbps
*Size: 111MB

Tracklist:
1.Archon of the Blightlands 07:56
2.Journey to the Throne of the Dark Lord 06:42
3.Atop the Wizard's Spire 06:26
4.Hordes of Carnage (Conquest of the Goblin King) 09:34
5.In the Grim Darkness... 06:07
6.Summoning the Sleeper 10:12
******************************
Total playing time: 46:57




Technical info
(IMG:http://metalarea.org/images/spectrogram/2018_Apr/ec37b794799908508026c2d192c4b11f.png)
Input File: 01 Archon of the Blightlands.mp3
Channels : 2
Sample Rate : 44100
Precision : 16-bit
Duration : 00:07:56.42 = 21009946 samples = 35731.2 CDDA sectors
File Size : 19.2M
Bit Rate : 322k
Sample Encoding: MPEG audio (layer I, II or III)
Comments :
Title=Archon of the Blightlands
Artist=Malphas
Album=Siege the Citadel
Tracknumber=1
Year=2018
Genre=Black Metal



Register


Go to the top of the page
  Insert nick Quick quote
+Quote Post
 
Start new topic
Replies (1 - 4)
post Apr 14 2018, 18:12:16
Post #2

Победитель судьбы
**************
Group: Металариец
Posts: 5,052
Releases: 0
From: Страны Мамонтов
On Forums: 11 years 6 months
Thanks: 1722 time(s)
Antarctica


Такое ощущение, что в Штатах блэк переживает свой ренессанс, только релизов блэковых оттуда поступает. Глядишь и что-то годное смогут создать
Go to the top of the page
  Insert nick Quick quote
+Quote Post
post Apr 14 2018, 20:22:08
Post #3

Satan bless you!
**************
Group: Металариец
Posts: 3,206
Releases: 63
From: Москва
On Forums: 10 years 1 month
Thanks: 2757 time(s)
Russian Federation


ЦИТАТА(avather @ Apr 14 2018, 20:12:16) *
Такое ощущение, что в Штатах блэк переживает свой ренессанс, только релизов блэковых оттуда поступает. Глядишь и что-то годное смогут создать

Процентов 80 оттуда мусор ван-мен бандовый..все кому не лень играют блэк,особенно у янки популярны направления black/noise и black/punk, причем в этих так называемых коллективах играют люди, чаще всего далекие от блэка - все их проекты совсем другого толка


Thanks:
(1) Ildjarn,
Go to the top of the page
  Insert nick Quick quote
+Quote Post
post Apr 15 2018, 15:03:24
Post #4

Маньяк
**********
Group: Металариец
Posts: 1,199
Releases: 0
From: Dnipro
On Forums: 10 years 1 month
Thanks: 328 time(s)
Ukraine


ЦИТАТА(RUSP73 @ Apr 14 2018, 22:22:08) *
Процентов 80 оттуда мусор ван-мен бандовый..все кому не лень играют блэк

Я бы сказал что там 99% мусора и отстоя.


Thanks:
Go to the top of the page
  Insert nick Quick quote
+Quote Post
post Apr 16 2018, 10:26:51
Post #5

Маньяк
**********
Group: Металариец
Posts: 1,102
Releases: 0
From: Беларусь
On Forums: 10 years 7 months
Thanks: 398 time(s)
Russian Federation


Но есть и годнота - Grand Belial's Key, Absu - крутые банды
Go to the top of the page
  Insert nick Quick quote
+Quote Post

Reply to this topicStart new topic
2 User(s) are reading this topic (2 Guests and 0 Anonymous Users)
0 Members:

 



- Lo-Fi Version Support form
Copyrights and abuse reports form
Time is now: 21st August 2018 - 10:54:36