Welcome Guest ( Log In | Register )

> Releases Upload / Добавление релизов

Добавить релиз тут / Click here to add release
Рекомендованные обменники / Recommended file shares

> Lamentaciones - Memorias (2018), Depressive Black Metal
post Apr 14 2018, 10:26:01
Post #1

Serial Uploader
Group Icon
Group: V.I.P
Posts: 32,452
Releases: 30758
From: Lithuania
On Forums: 9 years 11 months
Thanks: 353341 time(s)
Lithuania


(IMG:https://metalarea.org/images/audiocovers/2018_Apr/acov_tid304644_thumb.jpg)

*Artist: Lamentaciones
*Album: Memorias
*Year: 2018
*Genre: Depressive Black Metal
*Country: Colombia (IMG:https://metalarea.org/forum/style_images/flags/Colombia.png)
*Format: mp3@CBR320kbps
*Size: 132MB

Tracklist:
01. Memorias (Intro) 04:57
02. La Muerte Me Llama Desde Un Abismo 05:14
03. Recuerdo 05:25
04. Camino Sobre Mi Sombra 05:29
05. Desolación 06:07
06. Dolor 07:29
07. Recuerdos Que Inundan Mi Ser 05:27
08. Trascendencia En Mi Miseria 09:34
09. Lamentaciones 05:56
10. La Esperanza En Una Vida Insípida 01:38
******************************
Total playing time: 57:16



Technical info
(IMG:https://metalarea.org/images/spectrogram/2018_Apr/deea11b8075ce2248ef91eef028da6bf.png)
Input File: 02. La Muerte Me Llama Desde un Abismo.mp3
Channels : 2
Sample Rate : 44100
Precision : 16-bit
Duration : 00:00:00.31 = 13847 samples = 23.5493 CDDA sectors
File Size : 12.7M
Bit Rate : 324M
Sample Encoding: MPEG audio (layer I, II or III)
Comments :
Title=La Muerte Me Llama Desde un Abismo
Artist=Lamentaciones
Album=Memorias
Tracknumber=2/10
Year=2018-18-20
Discnumber=1/1



Register


Вернуться к началу страницы
  Insert nick Quick quote
+Цитировать сообщение
 
Создать новую тему
Replies (1 - 4)
post Apr 14 2018, 13:51:51
Post #2

Два Литра
**
Group: Завсегдатай
Posts: 122
Releases: 4
From: урал
On Forums: 8 years 6 months
Thanks: 193 time(s)
Russian Federation


Колумбийский депресняк в теме


Thanks:
Вернуться к началу страницы
  Insert nick Quick quote
+Цитировать сообщение
post Apr 14 2018, 21:21:11
Post #3

MDM-Thrash Metal
**************
Group: Металариец
Posts: 6,670
Releases: 410
From: Одесса
On Forums: 10 years 9 months
Thanks: 12727 time(s)
Ukraine


Register


Вернуться к началу страницы
  Insert nick Quick quote
+Цитировать сообщение
post Apr 15 2018, 23:34:49
Post #4

ME[ta]LLOMAN
**************
Group: Металариец
Posts: 4,828
Releases: 3
From: Hughes'sRegion\Avdeyevka
On Forums: 12 years 1 month
Thanks: 1719 time(s)
Honduras





Thanks:
Вернуться к началу страницы
  Insert nick Quick quote
+Цитировать сообщение
post Apr 17 2018, 22:24:33
Post #5

..ще до загибелі
**********
Group: Металариец
Posts: 1,096
Releases: 0
From: Мати Руських Міст
On Forums: 7 years 2 months
Thanks: 836 time(s)
American Samoa


ерунда, ни за один трек нельзя зацепиться. да и от депры тут - одна лишь презентация. мелодичный блековый компиляксон всякого среднесортного попурри из конца нулевых-начала десятых.
Вернуться к началу страницы
  Insert nick Quick quote
+Цитировать сообщение

ОтветитьСоздать новую тему
1 User(s) are reading this topic (1 Guests and 0 Anonymous Users)
0 Members:

 



- Lo-Fi Version Support form
Copyrights and abuse reports form
Time is now: 23rd May 2018 - 09:50:44