Welcome Guest ( Log In | Register )

> Illunis - Illunis (2018), Black Metal
post Apr 14 2018, 17:03:21
Post #1

Маньяк
**********
Group: Металариец
Posts: 1,355
Releases: 1053
From: Prešov
On Forums: 4 years 4 months
Thanks: 24226 time(s)
Slovakia


(IMG:http://metalarea.org/images/audiocovers/2018_Apr/acov_tid304661_thumb.jpg)

*Artist: Illunis
*Album: Illunis
*Year: 2018
*Genre: Black Metal
*Country: Germany (IMG:http://metalarea.org/forum/style_images/flags/Germany.png)
*Format: mp3@CBR320kbps
*Size: 73MB

Tracklist:
1. Trapped Beneath a Lurking Cloud 11:13
2. Memories Unveil the Sooth 10:03
3. Revelation (Coda in C minor) 07:41
4. Je vais, je viens, je suis le destin 03:10
******************************
Total playing time: 32:07



Extended info
Sol Records - SOLMC007


Technical info
(IMG:http://metalarea.org/images/spectrogram/2018_Apr/3684112639a78b93213191e919405133.png)
Input File: 02. Memories Unveil The Sooth.mp3
Channels : 2
Sample Rate : 44100
Precision : 16-bit
Duration : 00:10:03.12 = 26597680 samples = 45234.1 CDDA sectors
File Size : 24.2M
Bit Rate : 321k
Sample Encoding: MPEG audio (layer I, II or III)
Comments :
Title=Memories Unveil The Sooth
Artist=Illunis
Album=Illunis
Tracknumber=02/04
Year=2018
Genre=Black Metal



Register


Go to the top of the page
  Insert nick Quick quote
+Quote Post
 
Start new topic
Replies (1 - 5)
post Apr 14 2018, 19:02:19
Post #2

Два Литра
**
Group: Завсегдатай
Posts: 124
Releases: 4
From: урал
On Forums: 8 years 9 months
Thanks: 194 time(s)
Russian Federation


Всё монотонно, но хочется слушать!


Thanks:
Go to the top of the page
  Insert nick Quick quote
+Quote Post
post Apr 14 2018, 19:19:58
Post #3

holy trident
*********
Group: Металариец
Posts: 955
Releases: 0
On Forums: 5 years 7 months
Thanks: 618 time(s)
Ukraine


ну тут традиционно все збс
Go to the top of the page
  Insert nick Quick quote
+Quote Post
post Apr 16 2018, 21:06:52
Post #4

Group: Дух
Posts: 2
Releases: 0
From: Porto Alegre
On Forums: 4 months 5 days
Thanks: 0 time(s)
Brazil


The file can not be downloaded, error message appears..
Go to the top of the page
  Insert nick Quick quote
+Quote Post
post Apr 16 2018, 22:42:50
Post #5

Правь статус, ####!111
**************
Group: Металариец
Posts: 3,275
Releases: 622
From: Brazil
On Forums: 6 years 6 months
Thanks: 24954 time(s)
Brazil


Register


Go to the top of the page
  Insert nick Quick quote
+Quote Post
post Apr 16 2018, 23:03:00
Post #6

Group: Дух
Posts: 2
Releases: 0
From: Porto Alegre
On Forums: 4 months 5 days
Thanks: 0 time(s)
Brazil


Thanks a lot buddy!! \m/ \m/
Go to the top of the page
  Insert nick Quick quote
+Quote Post

Reply to this topicStart new topic
2 User(s) are reading this topic (2 Guests and 0 Anonymous Users)
0 Members:

 



- Lo-Fi Version Support form
Copyrights and abuse reports form
Time is now: 21st August 2018 - 22:44:14