Welcome Guest ( Log In | Register )

> Releases Upload / Добавление релизов

Добавить релиз тут / Click here to add release
Рекомендованные обменники / Recommended file shares

> Tulkas - Take The World (2018), Thrash Metal
post Apr 14 2018, 19:36:13
Post #1

Аннигилятор пивА
Group Icon
Group: V.I.P
Posts: 46,693
Releases: 14016
From: Koenigsberg - TILZIT
On Forums: 11 years 11 months
Thanks: 310917 time(s)
Russian Federation


(IMG:https://metalarea.org/images/audiocovers/2018_Apr/acov_tid304671_thumb.jpg)

*Artist: Tulkas
*Album: Take The World
*Year: 2018
*Genre: Thrash Metal
*Country: Mexico (IMG:https://metalarea.org/forum/style_images/flags/Mexico.png)
*Format: mp3@CBR320kbps
*Size: 99MB

Tracklist:
1. Blood Will Run 04:49
2. Hate 04:08
3. Insanity Circus 04:12
4. Take the World 04:27
5. Legions of Bastards 03:54
6. Godless Man 04:34
7. Faith Goes Blind 04:13
8. Rebellion 06:07
9. Traitor 05:03
******************************
Total playing time: 41:27




Extended info
-Carlos Reséndiz (Charlie) Drums
-Javier Trapero (Trapos) Vocals
-Guillermo Mendoza (Memo) Bass
-José Chávez (Lead Guitar)
-Edgar Castañeda (Rhythmic Guitar)


Technical info
(IMG:https://metalarea.org/images/spectrogram/2018_Apr/362aec500a6ea7e3d7ce4bd5ca48f527.png)
Input File: 02 HATE.mp3
Channels : 2
Sample Rate : 44100
Precision : 16-bit
Duration : 00:04:08.63 = 10964715 samples = 18647.5 CDDA sectors
File Size : 10.1M
Bit Rate : 326k
Sample Encoding: MPEG audio (layer I, II or III)
Comments :
Title=HATE
Artist=Tulkas
Album=Take the World
Tracknumber=2
Year=2018



Register


Вернуться к началу страницы
  Insert nick Quick quote
+Цитировать сообщение
 
Создать новую тему
Replies (1 - 4)
post Apr 15 2018, 02:41:23
Post #2

Аннигилятор пивА
Group Icon
Group: V.I.P
Posts: 46,693
Releases: 14016
From: Koenigsberg - TILZIT
On Forums: 11 years 11 months
Thanks: 310917 time(s)
Russian Federation


MIRROR
Register





Thanks:
Вернуться к началу страницы
  Insert nick Quick quote
+Цитировать сообщение
post Apr 15 2018, 05:29:46
Post #3

Правь статус, ####!111
**************
Group: Металариец
Posts: 5,117
Releases: 0
From: Primorye.ru
On Forums: 7 years 2 months
Thanks: 968 time(s)
Russian Federation


С удовольствием переслушал первый и послушал этот. Обалденно (IMG:style_emoticons/default/9.gif)


Thanks:
Вернуться к началу страницы
  Insert nick Quick quote
+Цитировать сообщение
post Apr 15 2018, 12:52:27
Post #4

Аннигилятор пивА
Group Icon
Group: V.I.P
Posts: 46,693
Releases: 14016
From: Koenigsberg - TILZIT
On Forums: 11 years 11 months
Thanks: 310917 time(s)
Russian Federation


ЦИТАТА(Diflock @ Apr 15 2018, 04:29:46) *
С удовольствием переслушал первый и послушал этот. Обалденно (IMG:style_emoticons/default/9.gif)

альбом как и дебют без провалов, заводной сочный бошкотряс в совокупности с качем напомнившим Exodus рубежа 80х-90х
Вернуться к началу страницы
  Insert nick Quick quote
+Цитировать сообщение
post Apr 15 2018, 20:43:16
Post #5

Мегаманьяк
***********
Group: Металариец
Posts: 1,901
Releases: 0
From: Odessa
On Forums: 10 years 2 months
Thanks: 687 time(s)
Ukraine


not really modern, but still boring as hell as nothing new at all
Вернуться к началу страницы
  Insert nick Quick quote
+Цитировать сообщение

ОтветитьСоздать новую тему
1 User(s) are reading this topic (1 Guests and 0 Anonymous Users)
0 Members:

 



- Lo-Fi Version Support form
Copyrights and abuse reports form
Time is now: 27th May 2018 - 12:21:09